  0
SECTION
  2
HEADER
  9
$ACADVER
  1
AC1018
  9
$ACADMAINTVER
 70
     0
  9
$DWGCODEPAGE
  3
ANSI_1252
  9
$INSBASE
 10
0.0
 20
0.0
 30
0.0
  9
$EXTMIN
 10
-231.9899245374959
 20
-8.3835709668698
 30
0.0
  9
$EXTMAX
 10
65.01007546250221
 20
201.6164290331303
 30
0.0
  9
$LIMMIN
 10
0.0
 20
0.0
  9
$LIMMAX
 10
12.0
 20
9.0
  9
$ORTHOMODE
 70
     0
  9
$REGENMODE
 70
     1
  9
$FILLMODE
 70
     1
  9
$QTEXTMODE
 70
     0
  9
$MIRRTEXT
 70
     1
  9
$LTSCALE
 40
1.0
  9
$ATTMODE
 70
     1
  9
$TEXTSIZE
 40
0.2
  9
$TRACEWID
 40
0.05
  9
$TEXTSTYLE
  7
Standard
  9
$CLAYER
  8
0
  9
$CELTYPE
  6
ByLayer
  9
$CECOLOR
 62
   256
  9
$CELTSCALE
 40
1.0
  9
$DISPSILH
 70
     0
  9
$DIMSCALE
 40
1.0
  9
$DIMASZ
 40
0.18
  9
$DIMEXO
 40
0.0625
  9
$DIMDLI
 40
0.38
  9
$DIMRND
 40
0.0
  9
$DIMDLE
 40
0.0
  9
$DIMEXE
 40
0.18
  9
$DIMTP
 40
0.0
  9
$DIMTM
 40
0.0
  9
$DIMTXT
 40
0.18
  9
$DIMCEN
 40
0.09
  9
$DIMTSZ
 40
0.0
  9
$DIMTOL
 70
     0
  9
$DIMLIM
 70
     0
  9
$DIMTIH
 70
     1
  9
$DIMTOH
 70
     1
  9
$DIMSE1
 70
     0
  9
$DIMSE2
 70
     0
  9
$DIMTAD
 70
     0
  9
$DIMZIN
 70
     0
  9
$DIMBLK
  1

  9
$DIMASO
 70
     1
  9
$DIMSHO
 70
     1
  9
$DIMPOST
  1

  9
$DIMAPOST
  1

  9
$DIMALT
 70
     0
  9
$DIMALTD
 70
     2
  9
$DIMALTF
 40
25.4
  9
$DIMLFAC
 40
1.0
  9
$DIMTOFL
 70
     0
  9
$DIMTVP
 40
0.0
  9
$DIMTIX
 70
     0
  9
$DIMSOXD
 70
     0
  9
$DIMSAH
 70
     0
  9
$DIMBLK1
  1

  9
$DIMBLK2
  1

  9
$DIMSTYLE
  2
Standard
  9
$DIMCLRD
 70
     0
  9
$DIMCLRE
 70
     0
  9
$DIMCLRT
 70
     0
  9
$DIMTFAC
 40
1.0
  9
$DIMGAP
 40
0.09
  9
$DIMJUST
 70
     0
  9
$DIMSD1
 70
     0
  9
$DIMSD2
 70
     0
  9
$DIMTOLJ
 70
     1
  9
$DIMTZIN
 70
     0
  9
$DIMALTZ
 70
     0
  9
$DIMALTTZ
 70
     0
  9
$DIMUPT
 70
     0
  9
$DIMDEC
 70
     4
  9
$DIMTDEC
 70
     4
  9
$DIMALTU
 70
     2
  9
$DIMALTTD
 70
     2
  9
$DIMTXSTY
  7
Standard
  9
$DIMAUNIT
 70
     0
  9
$DIMADEC
 70
     0
  9
$DIMALTRND
 40
0.0
  9
$DIMAZIN
 70
     0
  9
$DIMDSEP
 70
    46
  9
$DIMATFIT
 70
     3
  9
$DIMFRAC
 70
     0
  9
$DIMLDRBLK
  1

  9
$DIMLUNIT
 70
     2
  9
$DIMLWD
 70
    -2
  9
$DIMLWE
 70
    -2
  9
$DIMTMOVE
 70
     0
  9
$LUNITS
 70
     2
  9
$LUPREC
 70
     4
  9
$SKETCHINC
 40
0.1
  9
$FILLETRAD
 40
0.5
  9
$AUNITS
 70
     0
  9
$AUPREC
 70
     0
  9
$MENU
  1
.
  9
$ELEVATION
 40
0.0
  9
$PELEVATION
 40
0.0
  9
$THICKNESS
 40
0.0
  9
$LIMCHECK
 70
     0
  9
$CHAMFERA
 40
0.5
  9
$CHAMFERB
 40
0.5
  9
$CHAMFERC
 40
1.0
  9
$CHAMFERD
 40
0.0
  9
$SKPOLY
 70
     0
  9
$TDCREATE
 40
2458303.373464213
  9
$TDUCREATE
 40
2458303.29013088
  9
$TDUPDATE
 40
2458303.37346493
  9
$TDUUPDATE
 40
2458303.290131597
  9
$TDINDWG
 40
0.0000000116
  9
$TDUSRTIMER
 40
0.0000000116
  9
$USRTIMER
 70
     1
  9
$ANGBASE
 50
0.0
  9
$ANGDIR
 70
     0
  9
$PDMODE
 70
     0
  9
$PDSIZE
 40
0.0
  9
$PLINEWID
 40
0.0
  9
$SPLFRAME
 70
     0
  9
$SPLINETYPE
 70
     6
  9
$SPLINESEGS
 70
     8
  9
$HANDSEED
  5
297
  9
$SURFTAB1
 70
     6
  9
$SURFTAB2
 70
     6
  9
$SURFTYPE
 70
     6
  9
$SURFU
 70
     6
  9
$SURFV
 70
     6
  9
$UCSBASE
  2

  9
$UCSNAME
  2

  9
$UCSORG
 10
0.0
 20
0.0
 30
0.0
  9
$UCSXDIR
 10
1.0
 20
0.0
 30
0.0
  9
$UCSYDIR
 10
0.0
 20
1.0
 30
0.0
  9
$UCSORTHOREF
  2

  9
$UCSORTHOVIEW
 70
     0
  9
$UCSORGTOP
 10
0.0
 20
0.0
 30
0.0
  9
$UCSORGBOTTOM
 10
0.0
 20
0.0
 30
0.0
  9
$UCSORGLEFT
 10
0.0
 20
0.0
 30
0.0
  9
$UCSORGRIGHT
 10
0.0
 20
0.0
 30
0.0
  9
$UCSORGFRONT
 10
0.0
 20
0.0
 30
0.0
  9
$UCSORGBACK
 10
0.0
 20
0.0
 30
0.0
  9
$PUCSBASE
  2

  9
$PUCSNAME
  2

  9
$PUCSORG
 10
0.0
 20
0.0
 30
0.0
  9
$PUCSXDIR
 10
1.0
 20
0.0
 30
0.0
  9
$PUCSYDIR
 10
0.0
 20
1.0
 30
0.0
  9
$PUCSORTHOREF
  2

  9
$PUCSORTHOVIEW
 70
     0
  9
$PUCSORGTOP
 10
0.0
 20
0.0
 30
0.0
  9
$PUCSORGBOTTOM
 10
0.0
 20
0.0
 30
0.0
  9
$PUCSORGLEFT
 10
0.0
 20
0.0
 30
0.0
  9
$PUCSORGRIGHT
 10
0.0
 20
0.0
 30
0.0
  9
$PUCSORGFRONT
 10
0.0
 20
0.0
 30
0.0
  9
$PUCSORGBACK
 10
0.0
 20
0.0
 30
0.0
  9
$USERI1
 70
     0
  9
$USERI2
 70
     0
  9
$USERI3
 70
     0
  9
$USERI4
 70
     0
  9
$USERI5
 70
     0
  9
$USERR1
 40
18.1
  9
$USERR2
 40
0.0
  9
$USERR3
 40
0.0
  9
$USERR4
 40
0.0
  9
$USERR5
 40
0.0
  9
$WORLDVIEW
 70
     1
  9
$SHADEDGE
 70
     3
  9
$SHADEDIF
 70
    70
  9
$TILEMODE
 70
     1
  9
$MAXACTVP
 70
    64
  9
$PINSBASE
 10
0.0
 20
0.0
 30
0.0
  9
$PLIMCHECK
 70
     0
  9
$PEXTMIN
 10
1.00000000000000E+20
 20
1.00000000000000E+20
 30
1.00000000000000E+20
  9
$PEXTMAX
 10
-1.00000000000000E+20
 20
-1.00000000000000E+20
 30
-1.00000000000000E+20
  9
$PLIMMIN
 10
0.0
 20
0.0
  9
$PLIMMAX
 10
12.0
 20
9.0
  9
$UNITMODE
 70
     0
  9
$VISRETAIN
 70
     1
  9
$PLINEGEN
 70
     0
  9
$PSLTSCALE
 70
     1
  9
$TREEDEPTH
 70
  3020
  9
$CMLSTYLE
  2
Standard
  9
$CMLJUST
 70
     0
  9
$CMLSCALE
 40
1.0
  9
$PROXYGRAPHICS
 70
     1
  9
$MEASUREMENT
 70
     1
  9
$CELWEIGHT
370
    -1
  9
$ENDCAPS
280
     0
  9
$JOINSTYLE
280
     0
  9
$LWDISPLAY
290
     0
  9
$INSUNITS
 70
     4
  9
$HYPERLINKBASE
  1

  9
$STYLESHEET
  1

  9
$XEDIT
290
     1
  9
$CEPSNTYPE
380
     0
  9
$PSTYLEMODE
290
     1
  9
$FINGERPRINTGUID
  2
{FAB70961-C28C-49ED-89F9-4B870A369DC4}
  9
$VERSIONGUID
  2
{FAEB1C32-E019-11D5-929B-00C0DF256EC4}
  9
$EXTNAMES
290
     1
  9
$PSVPSCALE
 40
0.0
  9
$OLESTARTUP
290
     0
  9
$SORTENTS
280
   127
  9
$INDEXCTL
280
     0
  9
$HIDETEXT
280
     1
  9
$XCLIPFRAME
290
     0
  9
$HALOGAP
280
     0
  9
$OBSCOLOR
 70
   257
  9
$OBSLTYPE
280
     0
  9
$INTERSECTIONDISPLAY
280
     0
  9
$INTERSECTIONCOLOR
 70
   257
  9
$DIMASSOC
280
     2
  9
$PROJECTNAME
  1

  0
ENDSEC
  0
SECTION
  2
CLASSES
  0
CLASS
  1
ACDBDICTIONARYWDFLT
  2
AcDbDictionaryWithDefault
  3
ObjectDBX Classes
 90
        0
 91
        4
280
     0
281
     0
  0
CLASS
  1
VISUALSTYLE
  2
AcDbVisualStyle
  3
ObjectDBX Classes
 90
     4095
 91
        4
280
     0
281
     0
  0
CLASS
  1
MATERIAL
  2
AcDbMaterial
  3
ObjectDBX Classes
 90
     1153
 91
        4
280
     0
281
     0
  0
ENDSEC
  0
SECTION
  2
TABLES
  0
TABLE
  2
VPORT
  5
8
330
0
100
AcDbSymbolTable
 70
     1
  0
VPORT
  5
29
330
8
100
AcDbSymbolTableRecord
100
AcDbViewportTableRecord
  2
*Active
 70
     0
 10
0.0
 20
0.0
 11
1.0
 21
1.0
 12
-83.48992453749685
 22
96.61642903313025
 13
0.0
 23
0.0
 14
0.5
 24
0.5
 15
0.5
 25
0.5
 16
0.0
 26
0.0
 36
1.0
 17
0.0
 27
0.0
 37
0.0
 40
231.0000000000001
 41
1.60267857142857
 42
50.0
 43
0.0
 44
0.0
 50
0.0
 51
0.0
 71
     0
 72
   100
 73
     1
 74
     3
 75
     0
 76
     0
 77
     0
 78
     0
281
     0
 65
     1
110
0.0
120
0.0
130
0.0
111
1.0
121
0.0
131
0.0
112
0.0
122
1.0
132
0.0
 79
     0
146
0.0
  0
ENDTAB
  0
TABLE
  2
LTYPE
  5
5
330
0
100
AcDbSymbolTable
 70
     8
  0
LTYPE
  5
14
330
5
100
AcDbSymbolTableRecord
100
AcDbLinetypeTableRecord
  2
ByBlock
 70
     0
  3

 72
    65
 73
     0
 40
0.0
  0
LTYPE
  5
15
330
5
100
AcDbSymbolTableRecord
100
AcDbLinetypeTableRecord
  2
ByLayer
 70
     0
  3

 72
    65
 73
     0
 40
0.0
  0
LTYPE
  5
16
330
5
100
AcDbSymbolTableRecord
100
AcDbLinetypeTableRecord
  2
Continuous
 70
     0
  3
Solid line
 72
    65
 73
     0
 40
0.0
  0
LTYPE
  5
3F
330
5
100
AcDbSymbolTableRecord
100
AcDbLinetypeTableRecord
  2
DASHED
 70
     0
  3
Dashed
 72
    65
 73
     2
 40
15.0
 49
7.0
 74
     0
 49
-8.0
 74
     0
  0
LTYPE
  5
40
330
5
100
AcDbSymbolTableRecord
100
AcDbLinetypeTableRecord
  2
DOTTED
 70
     0
  3
Dotted
 72
    65
 73
     2
 40
1.0
 49
0.0
 74
     0
 49
-1.0
 74
     0
  0
LTYPE
  5
41
330
5
100
AcDbSymbolTableRecord
100
AcDbLinetypeTableRecord
  2
DOT_CENTER
 70
     0
  3
Dot_Center
 72
    65
 73
     4
 40
14.0
 49
12.0
 74
     0
 49
-1.0
 74
     0
 49
0.0
 74
     0
 49
-1.0
 74
     0
  0
LTYPE
  5
42
330
5
100
AcDbSymbolTableRecord
100
AcDbLinetypeTableRecord
  2
LONG_DASHED
 70
     0
  3
Long_Dashed
 72
    65
 73
     2
 40
15.0
 49
10.0
 74
     0
 49
-5.0
 74
     0
  0
LTYPE
  5
43
330
5
100
AcDbSymbolTableRecord
100
AcDbLinetypeTableRecord
  2
DASH_CENTER
 70
     0
  3
Dash_Center
 72
    65
 73
     4
 40
14.0
 49
11.0
 74
     0
 49
-1.0
 74
     0
 49
1.0
 74
     0
 49
-1.0
 74
     0
  0
LTYPE
  5
44
330
5
100
AcDbSymbolTableRecord
100
AcDbLinetypeTableRecord
  2
PHANTOM
 70
     0
  3
Phantom
 72
    65
 73
     6
 40
13.0
 49
10.0
 74
     0
 49
-1.0
 74
     0
 49
0.0
 74
     0
 49
-1.0
 74
     0
 49
0.0
 74
     0
 49
-1.0
 74
     0
  0
LTYPE
  5
45
330
5
100
AcDbSymbolTableRecord
100
AcDbLinetypeTableRecord
  2
CENTER_DASH_DASH
 70
     0
  3
Center_Dash_Dash
 72
    65
 73
     6
 40
14.0
 49
9.0
 74
     0
 49
-1.0
 74
     0
 49
1.0
 74
     0
 49
-1.0
 74
     0
 49
1.0
 74
     0
 49
-1.0
 74
     0
  0
ENDTAB
  0
TABLE
  2
LAYER
  5
2
330
0
100
AcDbSymbolTable
 70
     2
  0
LAYER
  5
10
330
2
100
AcDbSymbolTableRecord
100
AcDbLayerTableRecord
  2
0
 70
     0
 62
     7
  6
Continuous
370
    -3
390
F
  0
LAYER
  5
46
330
2
100
AcDbSymbolTableRecord
100
AcDbLayerTableRecord
  2
1
 70
     0
 62
     7
  6
Continuous
370
    -3
390
F
  0
ENDTAB
  0
TABLE
  2
STYLE
  5
3
330
0
100
AcDbSymbolTable
 70
     5
  0
STYLE
  5
11
330
3
100
AcDbSymbolTableRecord
100
AcDbTextStyleTableRecord
  2
Standard
 70
     0
 40
0.0
 41
1.0
 50
0.0
 71
     0
 42
0.2
  3
txt
  4

  0
STYLE
  5
AB
330
3
100
AcDbSymbolTableRecord
100
AcDbTextStyleTableRecord
  2
CONVERTER_11
 70
     0
 40
0.0
 41
0.9
 50
0.0
 71
     0
 42
0.2
  3
txt.shx
  4

  0
STYLE
  5
22D
330
3
100
AcDbSymbolTableRecord
100
AcDbTextStyleTableRecord
  2
CONVERTER_12
 70
     0
 40
0.0
 41
0.81
 50
0.0
 71
     0
 42
0.2
  3
txt.shx
  4

  0
STYLE
  5
233
330
3
100
AcDbSymbolTableRecord
100
AcDbTextStyleTableRecord
  2
CONVERTER_13
 70
     0
 40
0.0
 41
0.855
 50
0.0
 71
     0
 42
0.2
  3
txt.shx
  4

  0
STYLE
  5
236
330
3
100
AcDbSymbolTableRecord
100
AcDbTextStyleTableRecord
  2
CONVERTER_14
 70
     0
 40
0.0
 41
0.72
 50
0.0
 71
     0
 42
0.2
  3
txt.shx
  4

  0
ENDTAB
  0
TABLE
  2
VIEW
  5
6
330
0
100
AcDbSymbolTable
 70
     0
  0
ENDTAB
  0
TABLE
  2
UCS
  5
7
330
0
100
AcDbSymbolTable
 70
     0
  0
ENDTAB
  0
TABLE
  2
APPID
  5
9
330
0
100
AcDbSymbolTable
 70
     1
  0
APPID
  5
12
330
9
100
AcDbSymbolTableRecord
100
AcDbRegAppTableRecord
  2
ACAD
 70
     0
  0
ENDTAB
  0
TABLE
  2
DIMSTYLE
  5
A
330
0
100
AcDbSymbolTable
 70
     4
100
AcDbDimStyleTable
  0
DIMSTYLE
105
27
330
A
100
AcDbSymbolTableRecord
100
AcDbDimStyleTableRecord
  2
Standard
 70
     0
178
     0
340
11
  0
DIMSTYLE
105
CF
102
{ACAD_REACTORS
330
D0
102
}
330
A
100
AcDbSymbolTableRecord
100
AcDbDimStyleTableRecord
  2
ME10_DIM_10
 70
     0
 41
3.5
 42
0.5
 44
1.5
 73
     0
 74
     0
 77
     1
 78
     8
140
3.5
147
2.0
172
     1
173
     1
174
     1
175
     1
176
     2
177
     2
178
     3
340
AB
  0
DIMSTYLE
105
129
102
{ACAD_REACTORS
330
12A
102
}
330
A
100
AcDbSymbolTableRecord
100
AcDbDimStyleTableRecord
  2
ME10_DIM_11
 70
     0
 41
3.5
 42
0.5
 44
1.5
 73
     0
 74
     0
 77
     1
 78
     8
140
3.5
147
2.0
172
     1
173
     1
174
     1
175
     1
176
     2
177
     2
178
     3
340
AB
  0
DIMSTYLE
105
134
102
{ACAD_REACTORS
330
135
102
}
330
A
100
AcDbSymbolTableRecord
100
AcDbDimStyleTableRecord
  2
ME10_DIM_12
 70
     0
 41
3.5
 42
0.0
 44
2.0
 73
     0
 74
     0
 77
     1
 78
     8
140
3.5
147
2.0
172
     1
173
     1
174
     1
175
     1
176
     2
177
     2
271
     2
178
     3
271
     2
340
AB
  0
ENDTAB
  0
TABLE
  2
BLOCK_RECORD
  5
1
330
0
100
AcDbSymbolTable
 70
    20
  0
BLOCK_RECORD
  5
1F
330
1
100
AcDbSymbolTableRecord
100
AcDbBlockTableRecord
  2
*Model_Space
340
22
  0
BLOCK_RECORD
  5
1B
330
1
100
AcDbSymbolTableRecord
100
AcDbBlockTableRecord
  2
*Paper_Space
340
1E
  0
BLOCK_RECORD
  5
23
330
1
100
AcDbSymbolTableRecord
100
AcDbBlockTableRecord
  2
*Paper_Space0
340
26
  0
BLOCK_RECORD
  5
47
330
1
100
AcDbSymbolTableRecord
100
AcDbBlockTableRecord
  2
D_STTB_25_2P_SELECT__1
340
0
102
{BLKREFS
331
4B
102
}
  0
BLOCK_RECORD
  5
4A
330
1
100
AcDbSymbolTableRecord
100
AcDbBlockTableRecord
  2
AllgSicht1
340
0
102
{BLKREFS
331
7D
102
}
  0
BLOCK_RECORD
  5
4E
330
1
100
AcDbSymbolTableRecord
100
AcDbBlockTableRecord
  2
D_STTB_25_2P_SELECT__2
340
0
102
{BLKREFS
331
52
102
}
  0
BLOCK_RECORD
  5
51
330
1
100
AcDbSymbolTableRecord
100
AcDbBlockTableRecord
  2
Drfsicht1
340
0
102
{BLKREFS
331
7E
102
}
  0
BLOCK_RECORD
  5
55
330
1
100
AcDbSymbolTableRecord
100
AcDbBlockTableRecord
  2
D_STTB_25_2P_SELECT__3
340
0
102
{BLKREFS
331
59
102
}
  0
BLOCK_RECORD
  5
58
330
1
100
AcDbSymbolTableRecord
100
AcDbBlockTableRecord
  2
Rckans1
340
0
102
{BLKREFS
331
7F
102
}
  0
BLOCK_RECORD
  5
5C
330
1
100
AcDbSymbolTableRecord
100
AcDbBlockTableRecord
  2
D_STTB_25_2P_SELECT__4
340
0
102
{BLKREFS
331
60
102
}
  0
BLOCK_RECORD
  5
5F
330
1
100
AcDbSymbolTableRecord
100
AcDbBlockTableRecord
  2
SA_Links1
340
0
102
{BLKREFS
331
80
102
}
  0
BLOCK_RECORD
  5
63
330
1
100
AcDbSymbolTableRecord
100
AcDbBlockTableRecord
  2
D_STTB_25_2P_SELECT__5
340
0
102
{BLKREFS
331
67
102
}
  0
BLOCK_RECORD
  5
66
330
1
100
AcDbSymbolTableRecord
100
AcDbBlockTableRecord
  2
SA_Rechts1
340
0
102
{BLKREFS
331
81
102
}
  0
BLOCK_RECORD
  5
6A
330
1
100
AcDbSymbolTableRecord
100
AcDbBlockTableRecord
  2
D_STTB_25_2P_SELECT__6
340
0
102
{BLKREFS
331
6E
102
}
  0
BLOCK_RECORD
  5
6D
330
1
100
AcDbSymbolTableRecord
100
AcDbBlockTableRecord
  2
Vordans1
340
0
102
{BLKREFS
331
82
102
}
  0
BLOCK_RECORD
  5
71
330
1
100
AcDbSymbolTableRecord
100
AcDbBlockTableRecord
  2
_rahmen
340
0
102
{BLKREFS
331
78
102
}
  0
BLOCK_RECORD
  5
74
330
1
100
AcDbSymbolTableRecord
100
AcDbBlockTableRecord
  2
_punkt
340
0
102
{BLKREFS
331
79
102
}
  0
BLOCK_RECORD
  5
77
330
1
100
AcDbSymbolTableRecord
100
AcDbBlockTableRecord
  2
A4I_CS
340
0
102
{BLKREFS
331
83
102
}
  0
BLOCK_RECORD
  5
7C
330
1
100
AcDbSymbolTableRecord
100
AcDbBlockTableRecord
  2
1
340
0
102
{BLKREFS
331
86
102
}
  0
BLOCK_RECORD
  5
C4
330
1
100
AcDbSymbolTableRecord
100
AcDbBlockTableRecord
  2
*D17
340
0
  0
BLOCK_RECORD
  5
120
330
1
100
AcDbSymbolTableRecord
100
AcDbBlockTableRecord
  2
*D18
340
0
  0
BLOCK_RECORD
  5
12B
330
1
100
AcDbSymbolTableRecord
100
AcDbBlockTableRecord
  2
*D19
340
0
  0
ENDTAB
  0
ENDSEC
  0
SECTION
  2
BLOCKS
  0
BLOCK
  5
20
330
1F
100
AcDbEntity
  8
0
100
AcDbBlockBegin
  2
*Model_Space
 70
     0
 10
0.0
 20
0.0
 30
0.0
  3
*Model_Space
  1

  0
ENDBLK
  5
21
330
1F
100
AcDbEntity
  8
0
100
AcDbBlockEnd
  0
BLOCK
  5
1C
330
1B
100
AcDbEntity
 67
     1
  8
0
100
AcDbBlockBegin
  2
*Paper_Space
 70
     0
 10
0.0
 20
0.0
 30
0.0
  3
*Paper_Space
  1

  0
ENDBLK
  5
1D
330
1B
100
AcDbEntity
 67
     1
  8
0
100
AcDbBlockEnd
  0
BLOCK
  5
24
330
23
100
AcDbEntity
  8
0
100
AcDbBlockBegin
  2
*Paper_Space0
 70
     0
 10
0.0
 20
0.0
 30
0.0
  3
*Paper_Space0
  1

  0
ENDBLK
  5
25
330
23
100
AcDbEntity
  8
0
100
AcDbBlockEnd
  0
BLOCK
  5
48
330
47
100
AcDbEntity
  8
0
100
AcDbBlockBegin
  2
D_STTB_25_2P_SELECT__1
 70
     0
 10
-33.5428846426634
 20
44.96976361501054
 30
0.0
  3
D_STTB_25_2P_SELECT__1
  1

  0
LINE
  5
87
330
47
100
AcDbEntity
  8
0
  6
Continuous
 62
     7
100
AcDbLine
 10
28.4428836332078
 20
61.59439161205842
 30
0.0
 11
28.4428836332078
 21
58.13029002462801
 31
0.0
  0
LINE
  5
88
330
47
100
AcDbEntity
  8
0
  6
Continuous
 62
     7
100
AcDbLine
 10
27.40365314866682
 20
67.09054403476121
 30
0.0
 11
28.4428836332078
 21
61.59439161205842
 31
0.0
  0
LINE
  5
89
330
47
100
AcDbEntity
  8
0
  6
Continuous
 62
     7
100
AcDbLine
 10
6.9654533398662
 20
72.99054411544239
 30
0.0
 11
27.40365314866682
 21
67.09054403476121
 31
0.0
  0
LINE
  5
8A
330
47
100
AcDbEntity
  8
0
  6
Continuous
 62
     7
100
AcDbLine
 10
8.0654533398662
 20
73.94317205960527
 30
0.0
 11
28.50365314866681
 21
68.0431719789241
 31
0.0
  0
LINE
  5
8B
330
47
100
AcDbEntity
  8
0
  6
Continuous
 62
     7
100
AcDbLine
 10
8.0654533398662
 20
79.70224099476937
 30
0.0
 11
8.0654533398662
 21
73.94317205960527
 31
0.0
  0
LINE
  5
8C
330
47
100
AcDbEntity
  8
0
  6
Continuous
 62
     7
100
AcDbLine
 10
5.92622285532522
 20
84.24576547330999
 30
0.0
 11
7.02622285532522
 21
85.19839341747287
 31
0.0
  0
LINE
  5
8D
330
47
100
AcDbEntity
  8
0
  6
Continuous
 62
     7
100
AcDbLine
 10
5.92622285532522
 20
84.24576547330999
 30
0.0
 11
6.9654533398662
 21
78.74961305060648
 31
0.0
  0
LINE
  5
8E
330
47
100
AcDbEntity
  8
0
  6
Continuous
 62
     7
100
AcDbLine
 10
6.9654533398662
 20
78.74961305060648
 30
0.0
 11
6.9654533398662
 21
72.99054411544239
 31
0.0
  0
LINE
  5
8F
330
47
100
AcDbEntity
  8
0
  6
Continuous
 62
     7
100
AcDbLine
 10
7.02622285532522
 20
85.19839341747287
 30
0.0
 11
8.0654533398662
 21
79.70224099476937
 31
0.0
  0
LINE
  5
90
330
47
100
AcDbEntity
  8
0
  6
Continuous
 62
     7
100
AcDbLine
 10
6.9654533398662
 20
78.74961305060648
 30
0.0
 11
8.0654533398662
 21
79.70224099476937
 31
0.0
  0
LINE
  5
91
330
47
100
AcDbEntity
  8
0
  6
Continuous
 62
     7
100
AcDbLine
 10
6.9654533398662
 20
72.99054411544239
 30
0.0
 11
8.0654533398662
 21
73.94317205960527
 31
0.0
  0
LINE
  5
92
330
47
100
AcDbEntity
  8
0
  6
Continuous
 62
     7
100
AcDbLine
 10
-21.9381442319519
 20
83.10964611251325
 30
0.0
 11
-21.9381442319519
 21
85.92422867482372
 31
0.0
  0
LINE
  5
93
330
47
100
AcDbEntity
  8
0
  6
Continuous
 62
     7
100
AcDbLine
 10
-32.4205131217544
 20
86.13564536265562
 30
0.0
 11
-21.9381442319519
 21
83.10964611251325
 31
0.0
  0
LINE
  5
94
330
47
100
AcDbEntity
  8
0
  6
Continuous
 62
     7
100
AcDbLine
 10
-31.32051312175439
 20
87.08827330681851
 30
0.0
 11
-21.9381442319519
 21
84.37981670473107
 31
0.0
  0
LINE
  5
95
330
47
100
AcDbEntity
  8
0
  6
Continuous
 62
     7
100
AcDbLine
 10
27.40365314866682
 20
67.09054403476121
 30
0.0
 11
28.50365314866681
 21
68.0431719789241
 31
0.0
  0
LINE
  5
96
330
47
100
AcDbEntity
  8
0
  6
Continuous
 62
     7
100
AcDbLine
 10
29.54288363320782
 20
62.54701955622129
 30
0.0
 11
29.54288363320782
 21
59.0829179687909
 31
0.0
  0
LINE
  5
97
330
47
100
AcDbEntity
  8
0
  6
Continuous
 62
     7
100
AcDbLine
 10
28.44288363320771
 20
47.7379851237934
 30
0.0
 11
28.44288363320771
 21
45.8851495880739
 31
0.0
  0
LINE
  5
98
330
47
100
AcDbEntity
  8
0
  6
Continuous
 62
     7
100
AcDbLine
 10
28.4428836332078
 20
58.13029002462801
 30
0.0
 11
29.54288363320782
 21
59.0829179687909
 31
0.0
  0
LINE
  5
99
330
47
100
AcDbEntity
  8
0
  6
Continuous
 62
     7
100
AcDbLine
 10
28.4428836332078
 20
61.59439161205842
 30
0.0
 11
29.54288363320782
 21
62.54701955622129
 31
0.0
  0
LINE
  5
9A
330
47
100
AcDbEntity
  8
0
  6
Continuous
 62
     7
100
AcDbLine
 10
28.50365314866681
 20
68.0431719789241
 30
0.0
 11
29.54288363320782
 21
62.54701955622129
 31
0.0
  0
LINE
  5
9B
330
47
100
AcDbEntity
  8
0
  6
Continuous
 62
     7
100
AcDbLine
 10
-33.5428846426634
 20
76.02403999691904
 30
0.0
 11
-33.5428846426634
 21
80.09436091113136
 31
0.0
  0
LINE
  5
9C
330
47
100
AcDbEntity
  8
0
  6
Continuous
 62
     7
100
AcDbLine
 10
29.54288363320771
 20
48.69061306795628
 30
0.0
 11
29.54288363320771
 21
46.83777753223679
 31
0.0
  0
LINE
  5
9D
330
47
100
AcDbEntity
  8
0
  6
Continuous
 62
     7
100
AcDbLine
 10
28.44288363320771
 20
45.8851495880739
 30
0.0
 11
23.03228432883722
 21
44.96976361501054
 31
0.0
  0
LINE
  5
9E
330
47
100
AcDbEntity
  8
0
  6
Continuous
 62
     7
100
AcDbLine
 10
28.44288363320771
 20
47.7379851237934
 30
0.0
 11
29.54288363320771
 21
48.69061306795628
 31
0.0
  0
LINE
  5
9F
330
47
100
AcDbEntity
  8
0
  6
Continuous
 62
     7
100
AcDbLine
 10
28.44288363320771
 20
45.8851495880739
 30
0.0
 11
29.54288363320771
 21
46.83777753223679
 31
0.0
  0
LINE
  5
A0
330
47
100
AcDbEntity
  8
0
  6
Continuous
 62
     7
100
AcDbLine
 10
-33.5428846426634
 20
80.09436091113136
 30
0.0
 11
-32.4205131217544
 21
86.13564536265562
 31
0.0
  0
LINE
  5
A1
330
47
100
AcDbEntity
  8
0
  6
Continuous
 62
     7
100
AcDbLine
 10
-32.4205131217544
 20
86.13564536265562
 30
0.0
 11
-31.32051312175439
 21
87.08827330681851
 31
0.0
  0
LINE
  5
A2
330
47
100
AcDbEntity
  8
0
  6
Continuous
 62
     7
100
AcDbLine
 10
-33.5428846426634
 20
61.30160813258276
 30
0.0
 11
-33.5428846426634
 21
68.22981136285543
 31
0.0
  0
LINE
  5
A3
330
47
100
AcDbEntity
  8
0
  6
Continuous
 62
     7
100
AcDbLine
 10
-20.81577244365759
 20
91.9655145655777
 30
0.0
 11
-19.7157724436576
 21
92.91814250974058
 31
0.0
  0
LINE
  5
A4
330
47
100
AcDbEntity
  8
0
  6
Continuous
 62
     7
100
AcDbLine
 10
-21.9381442319519
 20
85.92422867482372
 30
0.0
 11
-20.81577244365759
 21
91.9655145655777
 31
0.0
  0
LINE
  5
A5
330
47
100
AcDbEntity
  8
0
  6
Continuous
 62
     7
100
AcDbLine
 10
-20.81577244365759
 20
91.9655145655777
 30
0.0
 11
5.92622285532522
 21
84.24576547330999
 31
0.0
  0
LINE
  5
A6
330
47
100
AcDbEntity
  8
0
  6
Continuous
 62
     7
100
AcDbLine
 10
-19.7157724436576
 20
92.91814250974058
 30
0.0
 11
7.02622285532522
 21
85.19839341747287
 31
0.0
  0
LINE
  5
A7
330
47
100
AcDbEntity
  8
0
  6
Continuous
 62
     7
100
AcDbLine
 10
23.03228432883722
 20
44.96976361501054
 30
0.0
 11
-33.5428846426634
 21
61.30160813258276
 31
0.0
  0
SPLINE
  5
A8
330
47
100
AcDbEntity
  8
0
  6
Continuous
 62
     7
100
AcDbSpline
210
0.0
220
0.0
230
1.0
 70
     8
 71
     3
 72
    13
 73
     9
 74
     7
 42
0.000000001
 43
0.0000000001
 44
0.00000001
 40
0.0
 40
0.0
 40
0.0
 40
0.0
 40
1.618800884027766
 40
3.296662977957369
 40
5.042045833800605
 40
6.857713258667804
 40
8.741157563166203
 40
10.68531588245667
 40
10.68531588245667
 40
10.68531588245667
 40
10.68531588245667
 10
28.4428836332078
 20
58.13029002462801
 30
0.0
 10
28.22597694378453
 20
57.63486932044432
 30
0.0
 10
27.78424983721786
 20
56.62595270885623
 30
0.0
 10
27.43862792751114
 20
54.97023717804819
 30
0.0
 10
27.31617568085456
 20
53.22380787723913
 30
0.0
 10
27.44708860959344
 20
51.40864286586046
 30
0.0
 10
27.80407984611872
 20
49.55509449960459
 30
0.0
 10
28.22770914208592
 20
48.35005972914686
 30
0.0
 10
28.44288363320771
 20
47.7379851237934
 30
0.0
 11
28.4428836332078
 21
58.13029002462801
 31
0.0
 11
27.84418517596184
 21
56.6262699233704
 31
0.0
 11
27.4804069811706
 21
54.98831795865733
 31
0.0
 11
27.35838353574969
 21
53.24720578581251
 31
0.0
 11
27.4804069811706
 21
51.43564334390647
 31
0.0
 11
27.84418517596183
 21
49.58766394050536
 31
0.0
 11
28.44288363320771
 21
47.7379851237934
 31
0.0
  0
SPLINE
  5
A9
330
47
100
AcDbEntity
  8
0
  6
Continuous
 62
     7
100
AcDbSpline
210
0.0
220
0.0
230
1.0
 70
     8
 71
     3
 72
    13
 73
     9
 74
     7
 42
0.000000001
 43
0.0000000001
 44
0.00000001
 40
0.0
 40
0.0
 40
0.0
 40
0.0
 40
1.618800884027766
 40
3.296662977957378
 40
5.042045833800601
 40
6.857713258667808
 40
8.741157563166208
 40
10.68531588245668
 40
10.68531588245668
 40
10.68531588245668
 40
10.68531588245668
 10
29.54288363320782
 20
59.0829179687909
 30
0.0
 10
29.32597694378455
 20
58.58749726460722
 30
0.0
 10
28.88424983721787
 20
57.57858065301912
 30
0.0
 10
28.53862792751115
 20
55.92286512221108
 30
0.0
 10
28.41617568085454
 20
54.17643582140202
 30
0.0
 10
28.54708860959346
 20
52.36127081002335
 30
0.0
 10
28.90407984611875
 20
50.50772244376749
 30
0.0
 10
29.32770914208593
 20
49.30268767330973
 30
0.0
 10
29.54288363320771
 20
48.69061306795628
 30
0.0
 11
29.54288363320782
 21
59.0829179687909
 31
0.0
 11
28.94418517596186
 21
57.57889786753329
 31
0.0
 11
28.58040698117061
 21
55.94094590282022
 31
0.0
 11
28.45838353574968
 21
54.19983372997541
 31
0.0
 11
28.58040698117061
 21
52.38827128806936
 31
0.0
 11
28.94418517596185
 21
50.54029188466825
 31
0.0
 11
29.54288363320771
 21
48.69061306795628
 31
0.0
  0
SPLINE
  5
AA
330
47
100
AcDbEntity
  8
0
  6
Continuous
 62
     7
100
AcDbSpline
210
0.0
220
0.0
230
1.0
 70
     8
 71
     3
 72
    11
 73
     7
 74
     5
 42
0.000000001
 43
0.0000000001
 44
0.00000001
 40
0.0
 40
0.0
 40
0.0
 40
0.0
 40
2.103260637709144
 40
4.123694499701245
 40
6.057513244800464
 40
7.908935340364533
 40
7.908935340364533
 40
7.908935340364533
 40
7.908935340364533
 10
-33.5428846426634
 20
76.02403999691904
 30
0.0
 10
-33.3728187127583
 20
75.34255380283842
 30
0.0
 10
-33.03938409382876
 20
74.00641845849913
 30
0.0
 10
-32.90142308846332
 20
71.98407024511168
 30
0.0
 10
-33.02275635357221
 20
70.040427203129
 30
0.0
 10
-33.37204295052913
 20
68.82452745723555
 30
0.0
 10
-33.5428846426634
 20
68.22981136285543
 30
0.0
 11
-33.5428846426634
 21
76.02403999691904
 31
0.0
 11
-33.09499560528102
 21
73.96902157332012
 31
0.0
 11
-32.94453731729
 21
71.95419768520061
 31
0.0
 11
-33.09499560528102
 21
70.02624093015454
 31
0.0
 11
-33.5428846426634
 21
68.22981136285543
 31
0.0
  0
ENDBLK
  5
49
330
47
100
AcDbEntity
  8
0
100
AcDbBlockEnd
  0
BLOCK
  5
4C
330
4A
100
AcDbEntity
  8
0
100
AcDbBlockBegin
  2
AllgSicht1
 70
     0
 10
-1.99999999999901
 20
70.0
 30
0.0
  3
AllgSicht1
  1

  0
INSERT
  5
4B
330
4A
100
AcDbEntity
  8
0
100
AcDbBlockReference
  2
D_STTB_25_2P_SELECT__1
 10
-33.5428846426634
 20
44.96976361501054
 30
0.0
  0
MTEXT
  5
AC
330
4A
100
AcDbEntity
  8
1
 62
     6
100
AcDbMText
 10
-2.00000000000205
 20
38.40785740205479
 30
0.0
 40
5.0
 41
0.0
 71
     2
 72
     1
  1
 
  7
CONVERTER_11
 73
     1
 44
1.32052821128451
  0
ENDBLK
  5
4D
330
4A
100
AcDbEntity
  8
0
100
AcDbBlockEnd
  0
BLOCK
  5
4F
330
4E
100
AcDbEntity
  8
0
100
AcDbBlockBegin
  2
D_STTB_25_2P_SELECT__2
 70
     0
 10
-158.5749995475313
 20
79.97499971388791
 30
0.0
  3
D_STTB_25_2P_SELECT__2
  1

  0
LINE
  5
AD
330
4E
100
AcDbEntity
  8
0
  6
Continuous
 62
     7
100
AcDbLine
 10
-158.5749995475313
 20
82.17499971388791
 30
0.0
 11
-157.2789965480761
 21
82.17499971388791
 31
0.0
  0
LINE
  5
AE
330
4E
100
AcDbEntity
  8
0
  6
Continuous
 62
     7
100
AcDbLine
 10
-157.2789965480761
 20
82.17499971388791
 30
0.0
 11
-145.1749995475313
 21
82.17499971388791
 31
0.0
  0
LINE
  5
AF
330
4E
100
AcDbEntity
  8
0
  6
Continuous
 62
     7
100
AcDbLine
 10
-157.2789965480761
 20
79.97499971388791
 30
0.0
 11
-157.2789965480761
 21
82.17499971388791
 31
0.0
  0
LINE
  5
B0
330
4E
100
AcDbEntity
  8
0
  6
Continuous
 62
     7
100
AcDbLine
 10
-143.8789962393262
 20
79.97499971388791
 30
0.0
 11
-143.8789962393262
 21
82.17499971388791
 31
0.0
  0
LINE
  5
B1
330
4E
100
AcDbEntity
  8
0
  6
Continuous
 62
     7
100
AcDbLine
 10
-145.1749995475313
 20
79.97499971388791
 30
0.0
 11
-145.1749995475313
 21
82.17499971388791
 31
0.0
  0
LINE
  5
B2
330
4E
100
AcDbEntity
  8
0
  6
Continuous
 62
     7
100
AcDbLine
 10
-88.1999995475309
 20
79.97499971388791
 30
0.0
 11
-88.1999995475309
 21
82.17499971388791
 31
0.0
  0
LINE
  5
B3
330
4E
100
AcDbEntity
  8
0
  6
Continuous
 62
     7
100
AcDbLine
 10
-111.7999998702556
 20
79.97499971388791
 30
0.0
 11
-111.7999998702556
 21
82.17499971388791
 31
0.0
  0
LINE
  5
B4
330
4E
100
AcDbEntity
  8
0
  6
Continuous
 62
     7
100
AcDbLine
 10
-112.9999998702553
 20
82.17499971388791
 30
0.0
 11
-111.7999998702556
 21
82.17499971388791
 31
0.0
  0
LINE
  5
B5
330
4E
100
AcDbEntity
  8
0
  6
Continuous
 62
     7
100
AcDbLine
 10
-112.9999998702553
 20
79.97499971388791
 30
0.0
 11
-112.9999998702553
 21
82.17499971388791
 31
0.0
  0
LINE
  5
B6
330
4E
100
AcDbEntity
  8
0
  6
Continuous
 62
     7
100
AcDbLine
 10
-86.99999954753136
 20
79.97499971388791
 30
0.0
 11
-86.99999954753136
 21
82.17499971388791
 31
0.0
  0
LINE
  5
B7
330
4E
100
AcDbEntity
  8
0
  6
Continuous
 62
     7
100
AcDbLine
 10
-158.5749995475313
 20
79.97499971388791
 30
0.0
 11
-157.2789965480761
 21
79.97499971388791
 31
0.0
  0
LINE
  5
B8
330
4E
100
AcDbEntity
  8
0
  6
Continuous
 62
     7
100
AcDbLine
 10
-157.2789965480761
 20
79.97499971388791
 30
0.0
 11
-145.1749995475313
 21
79.97499971388791
 31
0.0
  0
LINE
  5
B9
330
4E
100
AcDbEntity
  8
0
  6
Continuous
 62
     7
100
AcDbLine
 10
-88.1999995475309
 20
82.17499971388791
 30
0.0
 11
-86.99999954753136
 21
82.17499971388791
 31
0.0
  0
LINE
  5
BA
330
4E
100
AcDbEntity
  8
0
  6
Continuous
 62
     7
100
AcDbLine
 10
-111.7999998702556
 20
82.17499971388791
 30
0.0
 11
-88.1999995475309
 21
82.17499971388791
 31
0.0
  0
LINE
  5
BB
330
4E
100
AcDbEntity
  8
0
  6
Continuous
 62
     7
100
AcDbLine
 10
-145.1749995475313
 20
82.17499971388791
 30
0.0
 11
-143.8789962393262
 21
82.17499971388791
 31
0.0
  0
LINE
  5
BC
330
4E
100
AcDbEntity
  8
0
  6
Continuous
 62
     7
100
AcDbLine
 10
-111.7999998702556
 20
79.97499971388791
 30
0.0
 11
-88.1999995475309
 21
79.97499971388791
 31
0.0
  0
LINE
  5
BD
330
4E
100
AcDbEntity
  8
0
  6
Continuous
 62
     7
100
AcDbLine
 10
-88.1999995475309
 20
79.97499971388791
 30
0.0
 11
-86.99999954753136
 21
79.97499971388791
 31
0.0
  0
LINE
  5
BE
330
4E
100
AcDbEntity
  8
0
  6
Continuous
 62
     7
100
AcDbLine
 10
-145.1749995475313
 20
79.97499971388791
 30
0.0
 11
-143.8789962393262
 21
79.97499971388791
 31
0.0
  0
LINE
  5
BF
330
4E
100
AcDbEntity
  8
0
  6
Continuous
 62
     7
100
AcDbLine
 10
-112.9999998702553
 20
79.97499971388791
 30
0.0
 11
-111.7999998702556
 21
79.97499971388791
 31
0.0
  0
LINE
  5
C0
330
4E
100
AcDbEntity
  8
0
  6
Continuous
 62
     7
100
AcDbLine
 10
-143.8789962393262
 20
79.97499971388791
 30
0.0
 11
-112.9999998702553
 21
79.97499971388791
 31
0.0
  0
LINE
  5
C1
330
4E
100
AcDbEntity
  8
0
  6
Continuous
 62
     7
100
AcDbLine
 10
-158.5749995475313
 20
79.97499971388791
 30
0.0
 11
-158.5749995475313
 21
82.17499971388791
 31
0.0
  0
LINE
  5
C2
330
4E
100
AcDbEntity
  8
0
  6
Continuous
 62
     7
100
AcDbLine
 10
-143.8789962393262
 20
82.17499971388791
 30
0.0
 11
-112.9999998702553
 21
82.17499971388791
 31
0.0
  0
ENDBLK
  5
50
330
4E
100
AcDbEntity
  8
0
100
AcDbBlockEnd
  0
BLOCK
  5
53
330
51
100
AcDbEntity
  8
0
100
AcDbBlockBegin
  2
Drfsicht1
 70
     0
 10
-122.7874989509584
 20
81.07499969005107
 30
0.0
  3
Drfsicht1
  1

  0
INSERT
  5
52
330
51
100
AcDbEntity
  8
0
100
AcDbBlockReference
  2
D_STTB_25_2P_SELECT__2
 10
-158.5749995475313
 20
79.97499971388791
 30
0.0
  0
MTEXT
  5
C3
330
51
100
AcDbEntity
  8
1
 62
     6
100
AcDbMText
 10
-122.7874989509583
 20
74.97499966620899
 30
0.0
 40
5.0
 41
0.0
 71
     2
 72
     1
  1
 
  7
CONVERTER_11
 73
     1
 44
1.32052821128451
  0
DIMENSION
  5
D0
330
51
100
AcDbEntity
  8
1
100
AcDbDimension
  2
*D17
 10
-167.0062108947441
 20
82.17499971388791
 30
0.0
 11
-170.9312108947441
 21
91.66871295271072
 31
0.0
 70
    32
  1
<>
 71
     5
 42
-1.0
 53
90.0
  3
ME10_DIM_10
100
AcDbAlignedDimension
 13
-158.5749995475313
 23
79.97499971388791
 33
0.0
 14
-158.5749995475313
 24
82.17499971388791
 34
0.0
 50
90.0
100
AcDbRotatedDimension
  0
ENDBLK
  5
54
330
51
100
AcDbEntity
  8
0
100
AcDbBlockEnd
  0
BLOCK
  5
56
330
55
100
AcDbEntity
  8
0
100
AcDbBlockBegin
  2
D_STTB_25_2P_SELECT__3
 70
     0
 10
-45.00000045246773
 20
120.1750006642134
 30
0.0
  3
D_STTB_25_2P_SELECT__3
  1

  0
LINE
  5
D1
330
55
100
AcDbEntity
  8
0
  6
Continuous
 62
     7
100
AcDbLine
 10
-20.20000012974343
 20
147.1750006642119
 30
0.0
 11
-43.80000045246823
 21
147.1750006642119
 31
0.0
  0
LINE
  5
D2
330
55
100
AcDbEntity
  8
0
  6
Continuous
 62
     7
100
AcDbLine
 10
-19.00000012974373
 20
159.8250006642056
 30
0.0
 11
-20.20000012974343
 21
153.8250006642091
 31
0.0
  0
LINE
  5
D3
330
55
100
AcDbEntity
  8
0
  6
Continuous
 62
     7
100
AcDbLine
 10
26.57499954753217
 20
141.8750024152317
 30
0.0
 11
25.27899654807706
 21
149.2250006642119
 31
0.0
  0
LINE
  5
D4
330
55
100
AcDbEntity
  8
0
  6
Continuous
 62
     7
100
AcDbLine
 10
26.57499954753217
 20
137.1750006642143
 30
0.0
 11
26.57499954753217
 21
141.8750024152317
 31
0.0
  0
LINE
  5
D5
330
55
100
AcDbEntity
  8
0
  6
Continuous
 62
     7
100
AcDbLine
 10
26.57499954753217
 20
120.1750006642134
 30
0.0
 11
26.57499954753217
 21
128.1750006642101
 31
0.0
  0
LINE
  5
D6
330
55
100
AcDbEntity
  8
0
  6
Continuous
 62
     7
100
AcDbLine
 10
-38.75237852275673
 20
120.1750006642134
 30
0.0
 11
26.57499954753217
 21
120.1750006642134
 31
0.0
  0
LINE
  5
D7
330
55
100
AcDbEntity
  8
0
  6
Continuous
 62
     7
100
AcDbLine
 10
-45.00000045246773
 20
125.1750006322149
 30
0.0
 11
-45.00000045246773
 21
123.0355304415913
 31
0.0
  0
LINE
  5
D8
330
55
100
AcDbEntity
  8
0
  6
Continuous
 62
     7
100
AcDbLine
 10
-45.00000045246773
 20
141.1750006642162
 30
0.0
 11
-45.00000045246773
 21
137.1750006962099
 31
0.0
  0
LINE
  5
D9
330
55
100
AcDbEntity
  8
0
  6
Continuous
 62
     7
100
AcDbLine
 10
-43.80000045246823
 20
147.1750006642119
 30
0.0
 11
-45.00000045246773
 21
141.1750006642162
 31
0.0
  0
LINE
  5
DA
330
55
100
AcDbEntity
  8
0
  6
Continuous
 62
     7
100
AcDbLine
 10
-20.20000012974343
 20
153.8250006642091
 30
0.0
 11
-20.20000012974343
 21
147.1750006642119
 31
0.0
  0
LINE
  5
DB
330
55
100
AcDbEntity
  8
0
  6
Continuous
 62
     7
100
AcDbLine
 10
11.87899623932708
 20
159.8250006642056
 30
0.0
 11
-19.00000012974373
 21
159.8250006642056
 31
0.0
  0
LINE
  5
DC
330
55
100
AcDbEntity
  8
0
  6
Continuous
 62
     7
100
AcDbLine
 10
25.27899654807706
 20
149.2250006642119
 30
0.0
 11
13.17499954753217
 21
149.2250006642048
 31
0.0
  0
LINE
  5
DD
330
55
100
AcDbEntity
  8
0
  6
Continuous
 62
     7
100
AcDbLine
 10
13.17499954753217
 20
149.2250006642048
 30
0.0
 11
13.17499954753217
 21
152.4750006642176
 31
0.0
  0
LINE
  5
DE
330
55
100
AcDbEntity
  8
0
  6
Continuous
 62
     7
100
AcDbLine
 10
13.17499954753217
 20
152.4750006642176
 30
0.0
 11
11.87899623932708
 21
159.8250006642056
 31
0.0
  0
LINE
  5
DF
330
55
100
AcDbEntity
  8
0
  6
Continuous
 62
     7
100
AcDbLine
 10
-45.00000045246773
 20
123.0355304415913
 30
0.0
 11
-38.75237852275673
 21
120.1750006642134
 31
0.0
  0
ARC
  5
E0
330
55
100
AcDbEntity
  8
0
  6
Continuous
 62
     7
100
AcDbCircle
 10
40.88408756878579
 20
132.6750006642122
 30
0.0
 40
15.00000000000009
100
AcDbArc
 50
162.5423968762696
 51
197.4576031237304
  0
ARC
  5
E1
330
55
100
AcDbEntity
  8
0
  6
Continuous
 62
     7
100
AcDbCircle
 10
-58.7477275233704
 20
131.1750006642123
 30
0.0
 40
14.99999999999996
100
AcDbArc
 50
336.421821388444
 51
23.57817861155676
  0
ENDBLK
  5
57
330
55
100
AcDbEntity
  8
0
100
AcDbBlockEnd
  0
BLOCK
  5
5A
330
58
100
AcDbEntity
  8
0
100
AcDbBlockBegin
  2
Rckans1
 70
     0
 10
-9.21250104904064
 20
139.9999999999999
 30
0.0
  3
Rckans1
  1

  0
INSERT
  5
59
330
58
100
AcDbEntity
  8
0
100
AcDbBlockReference
  2
D_STTB_25_2P_SELECT__3
 10
-45.00000045246773
 20
120.1750006642134
 30
0.0
  0
MTEXT
  5
E2
330
58
100
AcDbEntity
  8
1
 62
     6
100
AcDbMText
 10
-9.21250104904163
 20
115.1749997138977
 30
0.0
 40
5.0
 41
0.0
 71
     2
 72
     1
  1
 
  7
CONVERTER_11
 73
     1
 44
1.32052821128451
  0
ENDBLK
  5
5B
330
58
100
AcDbEntity
  8
0
100
AcDbBlockEnd
  0
BLOCK
  5
5D
330
5C
100
AcDbEntity
  8
0
100
AcDbBlockBegin
  2
D_STTB_25_2P_SELECT__4
 70
     0
 10
-68.9499015325903
 20
120.1750006642133
 30
0.0
  3
D_STTB_25_2P_SELECT__4
  1

  0
LINE
  5
E3
330
5C
100
AcDbEntity
  8
0
  6
Continuous
 62
     7
100
AcDbLine
 10
-68.9499015325903
 20
137.1750006642143
 30
0.0
 11
-68.9499015325903
 21
128.1750006642101
 31
0.0
  0
LINE
  5
E4
330
5C
100
AcDbEntity
  8
0
  6
Continuous
 62
     7
100
AcDbLine
 10
-68.9499015325903
 20
137.1750006642143
 30
0.0
 11
-68.9499015325903
 21
141.8750024152316
 31
0.0
  0
LINE
  5
E5
330
5C
100
AcDbEntity
  8
0
  6
Continuous
 62
     7
100
AcDbLine
 10
-66.7499015325903
 20
120.1750006642133
 30
0.0
 11
-68.9499015325903
 21
120.1750006642133
 31
0.0
  0
LINE
  5
E6
330
5C
100
AcDbEntity
  8
0
  6
Continuous
 62
     7
100
AcDbLine
 10
-68.9499015325903
 20
120.1750006642133
 30
0.0
 11
-68.9499015325903
 21
128.1750006642101
 31
0.0
  0
LINE
  5
E7
330
5C
100
AcDbEntity
  8
0
  6
Continuous
 62
     7
100
AcDbLine
 10
-66.7499015325903
 20
120.1750006642133
 30
0.0
 11
-66.7499015325903
 21
128.1750006642101
 31
0.0
  0
LINE
  5
E8
330
5C
100
AcDbEntity
  8
0
  6
Continuous
 62
     7
100
AcDbLine
 10
-66.7499015325903
 20
159.8250006642055
 30
0.0
 11
-68.9499015325903
 21
159.8250006642055
 31
0.0
  0
LINE
  5
E9
330
5C
100
AcDbEntity
  8
0
  6
Continuous
 62
     7
100
AcDbLine
 10
-66.7499015325903
 20
141.8750024152316
 30
0.0
 11
-68.9499015325903
 21
141.8750024152316
 31
0.0
  0
LINE
  5
EA
330
5C
100
AcDbEntity
  8
0
  6
Continuous
 62
     7
100
AcDbLine
 10
-66.7499015325903
 20
137.1750006642143
 30
0.0
 11
-68.9499015325903
 21
137.1750006642143
 31
0.0
  0
LINE
  5
EB
330
5C
100
AcDbEntity
  8
0
  6
Continuous
 62
     7
100
AcDbLine
 10
-66.7499015325903
 20
137.1750006642143
 30
0.0
 11
-66.7499015325903
 21
141.8750024152316
 31
0.0
  0
LINE
  5
EC
330
5C
100
AcDbEntity
  8
0
  6
Continuous
 62
     7
100
AcDbLine
 10
-66.7499015325903
 20
149.2250006642118
 30
0.0
 11
-66.7499015325903
 21
152.4750006642175
 31
0.0
  0
LINE
  5
ED
330
5C
100
AcDbEntity
  8
0
  6
Continuous
 62
     7
100
AcDbLine
 10
-66.7499015325903
 20
152.4750006642175
 30
0.0
 11
-66.7499015325903
 21
159.8250006642055
 31
0.0
  0
LINE
  5
EE
330
5C
100
AcDbEntity
  8
0
  6
Continuous
 62
     7
100
AcDbLine
 10
-66.7499015325903
 20
141.8750024152316
 30
0.0
 11
-66.7499015325903
 21
149.2250006642118
 31
0.0
  0
LINE
  5
EF
330
5C
100
AcDbEntity
  8
0
  6
Continuous
 62
     7
100
AcDbLine
 10
-66.7499015325903
 20
152.4750006642175
 30
0.0
 11
-68.9499015325903
 21
152.4750006642175
 31
0.0
  0
LINE
  5
F0
330
5C
100
AcDbEntity
  8
0
  6
Continuous
 62
     7
100
AcDbLine
 10
-66.7499015325903
 20
149.2250006642118
 30
0.0
 11
-68.9499015325903
 21
149.2250006642118
 31
0.0
  0
LINE
  5
F1
330
5C
100
AcDbEntity
  8
0
  6
Continuous
 62
     7
100
AcDbLine
 10
-68.9499015325903
 20
149.2250006642118
 30
0.0
 11
-68.9499015325903
 21
152.4750006642175
 31
0.0
  0
LINE
  5
F2
330
5C
100
AcDbEntity
  8
0
  6
Continuous
 62
     7
100
AcDbLine
 10
-68.9499015325903
 20
152.4750006642175
 30
0.0
 11
-68.9499015325903
 21
159.8250006642055
 31
0.0
  0
LINE
  5
F3
330
5C
100
AcDbEntity
  8
0
  6
Continuous
 62
     7
100
AcDbLine
 10
-68.9499015325903
 20
141.8750024152316
 30
0.0
 11
-68.9499015325903
 21
149.2250006642118
 31
0.0
  0
LINE
  5
F4
330
5C
100
AcDbEntity
  8
0
  6
Continuous
 62
     7
100
AcDbLine
 10
-66.7499015325903
 20
128.1750006642101
 30
0.0
 11
-68.9499015325903
 21
128.1750006642101
 31
0.0
  0
LINE
  5
F5
330
5C
100
AcDbEntity
  8
0
  6
Continuous
 62
     7
100
AcDbLine
 10
-66.7499015325903
 20
137.1750006642143
 30
0.0
 11
-66.7499015325903
 21
128.1750006642101
 31
0.0
  0
ENDBLK
  5
5E
330
5C
100
AcDbEntity
  8
0
100
AcDbBlockEnd
  0
BLOCK
  5
61
330
5F
100
AcDbEntity
  8
0
100
AcDbBlockBegin
  2
SA_Links1
 70
     0
 10
-67.84990150875345
 20
139.9999999999998
 30
0.0
  3
SA_Links1
  1

  0
INSERT
  5
60
330
5F
100
AcDbEntity
  8
0
100
AcDbBlockReference
  2
D_STTB_25_2P_SELECT__4
 10
-68.9499015325903
 20
120.1750006642133
 30
0.0
  0
MTEXT
  5
F6
330
5F
100
AcDbEntity
  8
1
 62
     6
100
AcDbMText
 10
-67.84990150875345
 20
115.1749997138977
 30
0.0
 40
5.0
 41
0.0
 71
     2
 72
     1
  1
 
  7
CONVERTER_11
 73
     1
 44
1.32052821128451
  0
ENDBLK
  5
62
330
5F
100
AcDbEntity
  8
0
100
AcDbBlockEnd
  0
BLOCK
  5
64
330
63
100
AcDbEntity
  8
0
100
AcDbBlockBegin
  2
D_STTB_25_2P_SELECT__5
 70
     0
 10
-195.6749978780848
 20
120.1750006642135
 30
0.0
  3
D_STTB_25_2P_SELECT__5
  1

  0
LINE
  5
F7
330
63
100
AcDbEntity
  8
0
  6
Continuous
 62
     7
100
AcDbLine
 10
-195.6749978780848
 20
147.175000664212
 30
0.0
 11
-193.4749978780847
 21
147.175000664212
 31
0.0
  0
LINE
  5
F8
330
63
100
AcDbEntity
  8
0
  6
Continuous
 62
     7
100
AcDbLine
 10
-195.6749978780848
 20
141.1750006642163
 30
0.0
 11
-193.4749978780847
 21
141.1750006642164
 31
0.0
  0
LINE
  5
F9
330
63
100
AcDbEntity
  8
0
  6
Continuous
 62
     7
100
AcDbLine
 10
-195.6749978780848
 20
153.8250006642092
 30
0.0
 11
-193.4749978780847
 21
153.8250006642092
 31
0.0
  0
LINE
  5
FA
330
63
100
AcDbEntity
  8
0
  6
Continuous
 62
     7
100
AcDbLine
 10
-193.4749978780847
 20
147.175000664212
 30
0.0
 11
-193.4749978780847
 21
141.1750006642164
 31
0.0
  0
LINE
  5
FB
330
63
100
AcDbEntity
  8
0
  6
Continuous
 62
     7
100
AcDbLine
 10
-195.6749978780848
 20
125.175000632215
 30
0.0
 11
-193.4749978780847
 21
125.175000632215
 31
0.0
  0
LINE
  5
FC
330
63
100
AcDbEntity
  8
0
  6
Continuous
 62
     7
100
AcDbLine
 10
-195.6749978780848
 20
137.1750006962101
 30
0.0
 11
-193.4749978780847
 21
137.1750006962101
 31
0.0
  0
LINE
  5
FD
330
63
100
AcDbEntity
  8
0
  6
Continuous
 62
     7
100
AcDbLine
 10
-193.4749978780847
 20
159.8250006642057
 30
0.0
 11
-193.4749978780847
 21
153.8250006642092
 31
0.0
  0
LINE
  5
FE
330
63
100
AcDbEntity
  8
0
  6
Continuous
 62
     7
100
AcDbLine
 10
-193.4749978780847
 20
153.8250006642092
 30
0.0
 11
-193.4749978780847
 21
147.175000664212
 31
0.0
  0
LINE
  5
FF
330
63
100
AcDbEntity
  8
0
  6
Continuous
 62
     7
100
AcDbLine
 10
-195.6749978780848
 20
120.1750006642135
 30
0.0
 11
-193.4749978780847
 21
120.1750006642135
 31
0.0
  0
LINE
  5
100
330
63
100
AcDbEntity
  8
0
  6
Continuous
 62
     7
100
AcDbLine
 10
-195.6749978780848
 20
123.0355304415915
 30
0.0
 11
-195.6749978780848
 21
120.1750006642135
 31
0.0
  0
LINE
  5
101
330
63
100
AcDbEntity
  8
0
  6
Continuous
 62
     7
100
AcDbLine
 10
-195.6749978780848
 20
123.0355304415915
 30
0.0
 11
-193.4749978780847
 21
123.0355304415914
 31
0.0
  0
LINE
  5
102
330
63
100
AcDbEntity
  8
0
  6
Continuous
 62
     7
100
AcDbLine
 10
-193.4749978780847
 20
123.0355304415914
 30
0.0
 11
-193.4749978780847
 21
120.1750006642135
 31
0.0
  0
LINE
  5
103
330
63
100
AcDbEntity
  8
0
  6
Continuous
 62
     7
100
AcDbLine
 10
-193.4749978780847
 20
125.175000632215
 30
0.0
 11
-193.4749978780847
 21
123.0355304415914
 31
0.0
  0
LINE
  5
104
330
63
100
AcDbEntity
  8
0
  6
Continuous
 62
     7
100
AcDbLine
 10
-193.4749978780847
 20
141.1750006642164
 30
0.0
 11
-193.4749978780847
 21
137.1750006962101
 31
0.0
  0
LINE
  5
105
330
63
100
AcDbEntity
  8
0
  6
Continuous
 62
     7
100
AcDbLine
 10
-195.6749978780848
 20
147.175000664212
 30
0.0
 11
-195.6749978780848
 21
141.1750006642163
 31
0.0
  0
LINE
  5
106
330
63
100
AcDbEntity
  8
0
  6
Continuous
 62
     7
100
AcDbLine
 10
-195.6749978780848
 20
141.1750006642163
 30
0.0
 11
-195.6749978780848
 21
137.1750006962101
 31
0.0
  0
LINE
  5
107
330
63
100
AcDbEntity
  8
0
  6
Continuous
 62
     7
100
AcDbLine
 10
-195.6749978780848
 20
153.8250006642092
 30
0.0
 11
-195.6749978780848
 21
147.175000664212
 31
0.0
  0
LINE
  5
108
330
63
100
AcDbEntity
  8
0
  6
Continuous
 62
     7
100
AcDbLine
 10
-195.6749978780848
 20
159.8250006642057
 30
0.0
 11
-195.6749978780848
 21
153.8250006642092
 31
0.0
  0
LINE
  5
109
330
63
100
AcDbEntity
  8
0
  6
Continuous
 62
     7
100
AcDbLine
 10
-195.6749978780848
 20
125.175000632215
 30
0.0
 11
-195.6749978780848
 21
123.0355304415915
 31
0.0
  0
LINE
  5
10A
330
63
100
AcDbEntity
  8
0
  6
Continuous
 62
     7
100
AcDbLine
 10
-195.6749978780848
 20
137.1750006962101
 30
0.0
 11
-195.6749978780848
 21
125.175000632215
 31
0.0
  0
LINE
  5
10B
330
63
100
AcDbEntity
  8
0
  6
Continuous
 62
     7
100
AcDbLine
 10
-195.6749978780848
 20
159.8250006642057
 30
0.0
 11
-193.4749978780847
 21
159.8250006642057
 31
0.0
  0
LINE
  5
10C
330
63
100
AcDbEntity
  8
0
  6
Continuous
 62
     7
100
AcDbLine
 10
-193.4749978780847
 20
137.1750006962101
 30
0.0
 11
-193.4749978780847
 21
125.175000632215
 31
0.0
  0
ENDBLK
  5
65
330
63
100
AcDbEntity
  8
0
100
AcDbBlockEnd
  0
BLOCK
  5
68
330
66
100
AcDbEntity
  8
0
100
AcDbBlockBegin
  2
SA_Rechts1
 70
     0
 10
-194.5749979019216
 20
140.0
 30
0.0
  3
SA_Rechts1
  1

  0
INSERT
  5
67
330
66
100
AcDbEntity
  8
0
100
AcDbBlockReference
  2
D_STTB_25_2P_SELECT__5
 10
-195.6749978780848
 20
120.1750006642135
 30
0.0
  0
MTEXT
  5
10D
330
66
100
AcDbEntity
  8
1
 62
     6
100
AcDbMText
 10
-194.5749979019216
 20
115.1749997138977
 30
0.0
 40
5.0
 41
0.0
 71
     2
 72
     1
  1
 
  7
CONVERTER_11
 73
     1
 44
1.32052821128451
  0
ENDBLK
  5
69
330
66
100
AcDbEntity
  8
0
100
AcDbBlockEnd
  0
BLOCK
  5
6B
330
6A
100
AcDbEntity
  8
0
100
AcDbBlockBegin
  2
D_STTB_25_2P_SELECT__6
 70
     0
 10
-158.5749995475313
 20
120.1750006642135
 30
0.0
  3
D_STTB_25_2P_SELECT__6
  1

  0
LINE
  5
10E
330
6A
100
AcDbEntity
  8
0
  6
Continuous
 62
     7
100
AcDbLine
 10
-111.7999998702556
 20
153.8250006642092
 30
0.0
 11
-111.7999998702556
 21
147.175000664212
 31
0.0
  0
LINE
  5
10F
330
6A
100
AcDbEntity
  8
0
  6
Continuous
 62
     7
100
AcDbLine
 10
-111.7999998702556
 20
147.175000664212
 30
0.0
 11
-88.1999995475309
 21
147.175000664212
 31
0.0
  0
LINE
  5
110
330
6A
100
AcDbEntity
  8
0
  6
Continuous
 62
     7
100
AcDbLine
 10
-112.9999998702553
 20
159.8250006642057
 30
0.0
 11
-111.7999998702556
 21
153.8250006642092
 31
0.0
  0
LINE
  5
111
330
6A
100
AcDbEntity
  8
0
  6
Continuous
 62
     7
100
AcDbLine
 10
-88.1999995475309
 20
147.175000664212
 30
0.0
 11
-86.99999954753132
 21
141.1750006642163
 31
0.0
  0
LINE
  5
112
330
6A
100
AcDbEntity
  8
0
  6
Continuous
 62
     7
100
AcDbLine
 10
-145.1749995475313
 20
152.4750006642177
 30
0.0
 11
-143.8789962393262
 21
159.8250006642057
 31
0.0
  0
LINE
  5
113
330
6A
100
AcDbEntity
  8
0
  6
Continuous
 62
     7
100
AcDbLine
 10
-158.5749995475313
 20
120.1750006642135
 30
0.0
 11
-158.5749995475313
 21
128.1750006642103
 31
0.0
  0
LINE
  5
114
330
6A
100
AcDbEntity
  8
0
  6
Continuous
 62
     7
100
AcDbLine
 10
-93.24762147724239
 20
120.1750006642135
 30
0.0
 11
-158.5749995475313
 21
120.1750006642135
 31
0.0
  0
LINE
  5
115
330
6A
100
AcDbEntity
  8
0
  6
Continuous
 62
     7
100
AcDbLine
 10
-86.99999954753136
 20
125.175000632215
 30
0.0
 11
-86.99999954753136
 21
123.0355304415915
 31
0.0
  0
LINE
  5
116
330
6A
100
AcDbEntity
  8
0
  6
Continuous
 62
     7
100
AcDbLine
 10
-158.5749995475313
 20
141.8750024152318
 30
0.0
 11
-157.2789965480761
 21
149.2250006642121
 31
0.0
  0
LINE
  5
117
330
6A
100
AcDbEntity
  8
0
  6
Continuous
 62
     7
100
AcDbLine
 10
-157.2789965480761
 20
149.2250006642121
 30
0.0
 11
-145.1749995475313
 21
149.2250006642049
 31
0.0
  0
LINE
  5
118
330
6A
100
AcDbEntity
  8
0
  6
Continuous
 62
     7
100
AcDbLine
 10
-145.1749995475313
 20
149.2250006642049
 30
0.0
 11
-145.1749995475313
 21
152.4750006642177
 31
0.0
  0
LINE
  5
119
330
6A
100
AcDbEntity
  8
0
  6
Continuous
 62
     7
100
AcDbLine
 10
-158.5749995475313
 20
137.1750006642145
 30
0.0
 11
-158.5749995475313
 21
141.8750024152318
 31
0.0
  0
LINE
  5
11A
330
6A
100
AcDbEntity
  8
0
  6
Continuous
 62
     7
100
AcDbLine
 10
-86.99999954753132
 20
141.1750006642163
 30
0.0
 11
-86.99999954753132
 21
137.1750006962101
 31
0.0
  0
LINE
  5
11B
330
6A
100
AcDbEntity
  8
0
  6
Continuous
 62
     7
100
AcDbLine
 10
-143.8789962393262
 20
159.8250006642057
 30
0.0
 11
-112.9999998702553
 21
159.8250006642057
 31
0.0
  0
LINE
  5
11C
330
6A
100
AcDbEntity
  8
0
  6
Continuous
 62
     7
100
AcDbLine
 10
-86.99999954753136
 20
123.0355304415915
 30
0.0
 11
-93.24762147724239
 21
120.1750006642135
 31
0.0
  0
ARC
  5
11D
330
6A
100
AcDbEntity
  8
0
  6
Continuous
 62
     7
100
AcDbCircle
 10
-172.8840875687848
 20
132.6750006642124
 30
0.0
 40
14.99999999999998
100
AcDbArc
 50
342.5423968762695
 51
17.45760312373054
  0
ARC
  5
11E
330
6A
100
AcDbEntity
  8
0
  6
Continuous
 62
     7
100
AcDbCircle
 10
-73.25227247662869
 20
131.1750006642125
 30
0.0
 40
15.00000000000001
100
AcDbArc
 50
156.4218213884432
 51
203.5781786115563
  0
ENDBLK
  5
6C
330
6A
100
AcDbEntity
  8
0
100
AcDbBlockEnd
  0
BLOCK
  5
6F
330
6D
100
AcDbEntity
  8
0
100
AcDbBlockBegin
  2
Vordans1
 70
     0
 10
-122.7874989509584
 20
140.0
 30
0.0
  3
Vordans1
  1

  0
INSERT
  5
6E
330
6D
100
AcDbEntity
  8
0
100
AcDbBlockReference
  2
D_STTB_25_2P_SELECT__6
 10
-158.5749995475313
 20
120.1750006642135
 30
0.0
  0
MTEXT
  5
11F
330
6D
100
AcDbEntity
  8
1
 62
     6
100
AcDbMText
 10
-122.7874989509583
 20
115.1749997138977
 30
0.0
 40
5.0
 41
0.0
 71
     2
 72
     1
  1
 
  7
CONVERTER_11
 73
     1
 44
1.32052821128451
  0
DIMENSION
  5
12A
330
6D
100
AcDbEntity
  8
1
100
AcDbDimension
  2
*D18
 10
-166.9572588819301
 20
159.8250006642057
 30
0.0
 11
-170.8822588819301
 21
140.312018270319
 31
0.0
 70
    32
  1
<>
 71
     5
 42
-1.0
 53
90.0
  3
ME10_DIM_11
100
AcDbAlignedDimension
 13
-158.5749995475313
 23
120.1750006642135
 33
0.0
 14
-143.8789962393262
 24
159.8250006642057
 34
0.0
 50
90.0
100
AcDbRotatedDimension
  0
DIMENSION
  5
135
330
6D
100
AcDbEntity
  8
1
100
AcDbDimension
  2
*D19
 10
-86.99999954753132
 20
109.5784196326003
 30
0.0
 11
-122.7874989509584
 21
113.5034196326003
 31
0.0
 70
    32
  1
<>
 71
     5
 42
-1.0
 53
0.00013888888889
  3
ME10_DIM_12
100
AcDbAlignedDimension
 13
-158.5749995475313
 23
120.1750006642135
 33
0.0
 14
-86.99999954753136
 24
125.175000632215
 34
0.0
100
AcDbRotatedDimension
  0
ENDBLK
  5
70
330
6D
100
AcDbEntity
  8
0
100
AcDbBlockEnd
  0
BLOCK
  5
72
330
71
100
AcDbEntity
  8
0
100
AcDbBlockBegin
  2
_rahmen
 70
     0
 10
60.01007546250322
 20
-8.3835709668698
 30
0.0
  3
_rahmen
  1

  0
LINE
  5
136
330
71
100
AcDbEntity
  8
1
  6
DOT_CENTER
 62
     2
100
AcDbLine
 10
-65.54807417768419
 20
17.74142903313023
 30
0.0
 11
-60.04807417768419
 21
17.74142903313023
 31
0.0
  0
LINE
  5
137
330
71
100
AcDbEntity
  8
1
  6
PHANTOM
 62
     2
100
AcDbLine
 10
-56.79807417768419
 20
20.49142903313023
 30
0.0
 11
-56.79807417768419
 21
14.99142903313023
 31
0.0
  0
LINE
  5
138
330
71
100
AcDbEntity
  8
1
  6
PHANTOM
 62
     2
100
AcDbLine
 10
-54.04807417768419
 20
17.74142903313023
 30
0.0
 11
-59.54807417768419
 21
17.74142903313023
 31
0.0
  0
LINE
  5
139
330
71
100
AcDbEntity
  8
1
  6
Continuous
 62
     7
100
AcDbLine
 10
-5.23472906424678
 20
5.11642903313023
 30
0.0
 11
-5.23472906424678
 21
13.61642903313032
 31
0.0
  0
LINE
  5
13A
330
71
100
AcDbEntity
  8
1
  6
Continuous
 62
     6
100
AcDbLine
 10
-33.13472906424687
 20
13.61642903313032
 30
0.0
 11
60.01007546250492
 21
13.61642903313032
 31
0.0
  0
LINE
  5
13B
330
71
100
AcDbEntity
  8
1
  6
Continuous
 62
     7
100
AcDbLine
 10
-69.53472906424679
 20
13.61642903313032
 30
0.0
 11
-69.53472906424679
 21
22.11642903313032
 31
0.0
  0
LINE
  5
13C
330
71
100
AcDbEntity
  8
1
  6
Continuous
 62
     7
100
AcDbLine
 10
-33.13472906424687
 20
13.61642903313032
 30
0.0
 11
-33.13472906424687
 21
22.11642903313032
 31
0.0
  0
LINE
  5
13D
330
71
100
AcDbEntity
  8
1
  6
Continuous
 62
     7
100
AcDbLine
 10
24.59166718082611
 20
22.11642903313032
 30
0.0
 11
24.59166718082611
 21
13.61642903313032
 31
0.0
  0
LINE
  5
13E
330
71
100
AcDbEntity
  8
1
  6
Continuous
 62
     7
100
AcDbLine
 10
51.09166718082571
 20
22.11642903313032
 30
0.0
 11
51.09166718082571
 21
13.61642903313032
 31
0.0
  0
LINE
  5
13F
330
71
100
AcDbEntity
  8
1
  6
Continuous
 62
     6
100
AcDbLine
 10
-138.5347290642468
 20
-3.38357096686968
 30
0.0
 11
-183.4899245374968
 21
-3.38357096686968
 31
0.0
  0
LINE
  5
140
330
71
100
AcDbEntity
  8
1
  6
Continuous
 62
     7
100
AcDbLine
 10
60.01007546250452
 20
5.11642903313032
 30
0.0
 11
-33.13472906424687
 21
5.11642903313032
 31
0.0
  0
LINE
  5
141
102
{ACAD_REACTORS
330
253
330
254
102
}
330
71
100
AcDbEntity
  8
0
  6
Continuous
 62
     2
100
AcDbLine
 10
-55.82730012247939
 20
5.91671814879362
 30
0.0
 11
-55.82730012247939
 21
6.78923515559691
 31
0.0
  0
LINE
  5
142
102
{ACAD_REACTORS
330
253
330
254
102
}
330
71
100
AcDbEntity
  8
0
  6
Continuous
 62
     2
100
AcDbLine
 10
-55.82730012247939
 20
4.95694944131071
 30
0.0
 11
-55.82730012247939
 21
4.08443243450751
 31
0.0
  0
LINE
  5
143
102
{ACAD_REACTORS
330
255
330
256
102
}
330
71
100
AcDbEntity
  8
0
  6
Continuous
 62
     2
100
AcDbLine
 10
-40.49425598618888
 20
6.17847325083412
 30
0.0
 11
-39.39061668662077
 21
6.17847325083412
 31
0.0
  0
LINE
  5
144
102
{ACAD_REACTORS
330
255
330
256
102
}
330
71
100
AcDbEntity
  8
0
  6
Continuous
 62
     2
100
AcDbLine
 10
-39.72459864322747
 20
4.95694944131023
 30
0.0
 11
-39.72459864322747
 21
4.08443243450691
 31
0.0
  0
LINE
  5
145
102
{ACAD_REACTORS
330
25F
330
260
102
}
330
71
100
AcDbEntity
  8
0
  6
Continuous
 62
     2
100
AcDbLine
 10
-41.58535525860739
 20
7.26911950932092
 30
0.0
 11
-40.18740221166709
 21
8.84997850309591
 31
0.0
  0
LINE
  5
146
102
{ACAD_REACTORS
330
25F
330
260
102
}
330
71
100
AcDbEntity
  8
0
  6
Continuous
 62
     2
100
AcDbLine
 10
-41.48993184243457
 20
10.32292903313211
 30
0.0
 11
-40.18740221166709
 21
8.84997850309591
 31
0.0
  0
LINE
  5
147
102
{ACAD_REACTORS
330
25F
330
260
102
}
330
71
100
AcDbEntity
  8
0
  6
Continuous
 62
     2
100
AcDbLine
 10
-38.88487258090069
 20
10.32292903313211
 30
0.0
 11
-37.48214836315347
 21
10.32292903313211
 31
0.0
  0
LINE
  5
148
102
{ACAD_REACTORS
330
25F
330
260
102
}
330
71
100
AcDbEntity
  8
0
  6
Continuous
 62
     2
100
AcDbLine
 10
-40.18263104085918
 20
7.26911950932092
 30
0.0
 11
-39.48604010279348
 21
8.05685129461463
 31
0.0
  0
LINE
  5
149
102
{ACAD_REACTORS
330
25F
330
260
102
}
330
71
100
AcDbEntity
  8
0
  6
Continuous
 62
     2
100
AcDbLine
 10
-40.18263104085918
 20
7.26911950932092
 30
0.0
 11
-41.58535525860739
 21
7.26911950932092
 31
0.0
  0
LINE
  5
14A
102
{ACAD_REACTORS
330
261
330
262
102
}
330
71
100
AcDbEntity
  8
0
  6
Continuous
 62
     2
100
AcDbLine
 10
-41.70463452882427
 20
7.26911950932092
 30
0.0
 11
-42.94513893907717
 21
7.26911950932092
 31
0.0
  0
LINE
  5
14B
102
{ACAD_REACTORS
330
263
330
264
102
}
330
71
100
AcDbEntity
  8
0
  6
Continuous
 62
     2
100
AcDbLine
 10
-43.81311854723228
 20
5.13145284267111
 30
0.0
 11
-44.11328378442238
 21
5.89926780865781
 31
0.0
  0
LINE
  5
14C
102
{ACAD_REACTORS
330
263
330
264
102
}
330
71
100
AcDbEntity
  8
0
  6
Continuous
 62
     2
100
AcDbLine
 10
-44.41344902161478
 20
5.13145284267111
 30
0.0
 11
-43.81311854723228
 21
5.13145284267111
 31
0.0
  0
LINE
  5
14D
102
{ACAD_REACTORS
330
263
330
264
102
}
330
71
100
AcDbEntity
  8
0
  6
Continuous
 62
     2
100
AcDbLine
 10
-46.13148903648857
 20
3.90992903314662
 30
0.0
 11
-44.89098462623559
 21
3.90992903314662
 31
0.0
  0
LINE
  5
14E
102
{ACAD_REACTORS
330
263
330
264
102
}
330
71
100
AcDbEntity
  8
0
  6
Continuous
 62
     2
100
AcDbLine
 10
-44.73353598954927
 20
6.96373855695771
 30
0.0
 11
-43.49303157929657
 21
6.96373855695771
 31
0.0
  0
LINE
  5
14F
102
{ACAD_REACTORS
330
263
330
264
102
}
330
71
100
AcDbEntity
  8
0
  6
Continuous
 62
     2
100
AcDbLine
 10
-43.49303157929657
 20
6.96373855695771
 30
0.0
 11
-42.09507853235627
 21
3.90992903314662
 31
0.0
  0
LINE
  5
150
102
{ACAD_REACTORS
330
263
330
264
102
}
330
71
100
AcDbEntity
  8
0
  6
Continuous
 62
     2
100
AcDbLine
 10
-43.33558294261019
 20
3.90992903314662
 30
0.0
 11
-43.54706299608597
 21
4.45088957736451
 31
0.0
  0
LINE
  5
151
102
{ACAD_REACTORS
330
265
330
266
102
}
330
71
100
AcDbEntity
  8
0
  6
Continuous
 62
     2
100
AcDbLine
 10
-47.47790213819619
 20
3.90992903314662
 30
0.0
 11
-46.28510943602967
 21
3.90992903314662
 31
0.0
  0
LINE
  5
152
102
{ACAD_REACTORS
330
265
330
266
102
}
330
71
100
AcDbEntity
  8
0
  6
Continuous
 62
     2
100
AcDbLine
 10
-47.47790213819619
 20
6.17847325083412
 30
0.0
 11
-47.47790213819619
 21
3.90992903314662
 31
0.0
  0
LINE
  5
153
102
{ACAD_REACTORS
330
265
330
266
102
}
330
71
100
AcDbEntity
  8
0
  6
Continuous
 62
     2
100
AcDbLine
 10
-48.28900117567079
 20
6.96373855695771
 30
0.0
 11
-48.28900117567079
 21
6.17847325083412
 31
0.0
  0
LINE
  5
154
102
{ACAD_REACTORS
330
267
330
268
102
}
330
71
100
AcDbEntity
  8
0
  6
Continuous
 62
     2
100
AcDbLine
 10
-46.80978729409819
 20
7.26911950932092
 30
0.0
 11
-45.61699459193167
 21
7.26911950932092
 31
0.0
  0
LINE
  5
155
102
{ACAD_REACTORS
330
267
330
268
102
}
330
71
100
AcDbEntity
  8
0
  6
Continuous
 62
     2
100
AcDbLine
 10
-44.37649018167767
 20
9.01415352292693
 30
0.0
 11
-45.61699459193167
 21
10.32292903313211
 31
0.0
  0
LINE
  5
156
102
{ACAD_REACTORS
330
267
330
268
102
}
330
71
100
AcDbEntity
  8
0
  6
Continuous
 62
     2
100
AcDbLine
 10
-43.18369747951107
 20
10.32292903313211
 30
0.0
 11
-44.37649018167767
 21
10.32292903313211
 31
0.0
  0
LINE
  5
157
102
{ACAD_REACTORS
330
267
330
268
102
}
330
71
100
AcDbEntity
  8
0
  6
Continuous
 62
     2
100
AcDbLine
 10
-43.18369747951107
 20
7.26911950932092
 30
0.0
 11
-43.18369747951107
 21
10.32292903313211
 31
0.0
  0
LINE
  5
158
102
{ACAD_REACTORS
330
267
330
268
102
}
330
71
100
AcDbEntity
  8
0
  6
Continuous
 62
     2
100
AcDbLine
 10
-44.37649018167767
 20
7.26911950932092
 30
0.0
 11
-43.18369747951107
 21
7.26911950932092
 31
0.0
  0
LINE
  5
159
102
{ACAD_REACTORS
330
267
330
268
102
}
330
71
100
AcDbEntity
  8
0
  6
Continuous
 62
     2
100
AcDbLine
 10
-45.61699459193167
 20
8.57789501952561
 30
0.0
 11
-44.37649018167767
 21
7.26911950932092
 31
0.0
  0
LINE
  5
15A
102
{ACAD_REACTORS
330
269
330
26A
102
}
330
71
100
AcDbEntity
  8
0
  6
Continuous
 62
     2
100
AcDbLine
 10
-49.62492900209739
 20
5.65496304675261
 30
0.0
 11
-50.86543341235029
 21
6.96373855695771
 31
0.0
  0
LINE
  5
15B
102
{ACAD_REACTORS
330
269
330
26A
102
}
330
71
100
AcDbEntity
  8
0
  6
Continuous
 62
     2
100
AcDbLine
 10
-49.62492900209739
 20
6.96373855695771
 30
0.0
 11
-49.62492900209739
 21
5.65496304675261
 31
0.0
  0
LINE
  5
15C
102
{ACAD_REACTORS
330
269
330
26A
102
}
330
71
100
AcDbEntity
  8
0
  6
Continuous
 62
     2
100
AcDbLine
 10
-48.43213629993099
 20
6.96373855695771
 30
0.0
 11
-49.62492900209739
 21
6.96373855695771
 31
0.0
  0
LINE
  5
15D
102
{ACAD_REACTORS
330
269
330
26A
102
}
330
71
100
AcDbEntity
  8
0
  6
Continuous
 62
     2
100
AcDbLine
 10
-48.43213629993099
 20
3.90992903314662
 30
0.0
 11
-48.43213629993099
 21
6.96373855695771
 31
0.0
  0
LINE
  5
15E
102
{ACAD_REACTORS
330
269
330
26A
102
}
330
71
100
AcDbEntity
  8
0
  6
Continuous
 62
     2
100
AcDbLine
 10
-50.86543341235029
 20
5.21870454335121
 30
0.0
 11
-49.62492900209739
 21
3.90992903314662
 31
0.0
  0
LINE
  5
15F
102
{ACAD_REACTORS
330
269
330
26A
102
}
330
71
100
AcDbEntity
  8
0
  6
Continuous
 62
     2
100
AcDbLine
 10
-50.86543341235029
 20
3.90992903314662
 30
0.0
 11
-50.86543341235029
 21
5.21870454335121
 31
0.0
  0
LINE
  5
160
102
{ACAD_REACTORS
330
259
330
25A
102
}
330
71
100
AcDbEntity
  8
0
  6
Continuous
 62
     2
100
AcDbLine
 10
-48.38427366095877
 20
9.62491542768913
 30
0.0
 11
-47.04834583453109
 21
9.62491542768913
 31
0.0
  0
LINE
  5
161
102
{ACAD_REACTORS
330
259
330
25A
102
}
330
71
100
AcDbEntity
  8
0
  6
Continuous
 62
     2
100
AcDbLine
 10
-48.38427366095877
 20
7.96713311476341
 30
0.0
 11
-48.38427366095877
 21
8.44701746850512
 31
0.0
  0
LINE
  5
162
102
{ACAD_REACTORS
330
259
330
25A
102
}
330
71
100
AcDbEntity
  8
0
  6
Continuous
 62
     2
100
AcDbLine
 10
-47.04834583453109
 20
7.96713311476341
 30
0.0
 11
-48.38427366095877
 21
7.96713311476341
 31
0.0
  0
LINE
  5
163
102
{ACAD_REACTORS
330
259
330
25A
102
}
330
71
100
AcDbEntity
  8
0
  6
Continuous
 62
     2
100
AcDbLine
 10
-47.04834583453109
 20
7.26911950932092
 30
0.0
 11
-47.04834583453109
 21
7.96713311476341
 31
0.0
  0
LINE
  5
164
102
{ACAD_REACTORS
330
259
330
25A
102
}
330
71
100
AcDbEntity
  8
0
  6
Continuous
 62
     2
100
AcDbLine
 10
-50.19866555831209
 20
7.26911950932092
 30
0.0
 11
-47.04834583453109
 21
7.26911950932092
 31
0.0
  0
LINE
  5
165
102
{ACAD_REACTORS
330
259
330
25A
102
}
330
71
100
AcDbEntity
  8
0
  6
Continuous
 62
     2
100
AcDbLine
 10
-50.19866555831209
 20
10.32292903313211
 30
0.0
 11
-47.04834583453109
 21
10.32292903313211
 31
0.0
  0
LINE
  5
166
102
{ACAD_REACTORS
330
259
330
25A
102
}
330
71
100
AcDbEntity
  8
0
  6
Continuous
 62
     2
100
AcDbLine
 10
-47.04834583453109
 20
9.62491542768913
 30
0.0
 11
-47.04834583453109
 21
10.32292903313211
 31
0.0
  0
LINE
  5
167
102
{ACAD_REACTORS
330
26B
330
26C
102
}
330
71
100
AcDbEntity
  8
0
  6
Continuous
 62
     2
100
AcDbLine
 10
-53.06002105345209
 20
9.25409569979752
 30
0.0
 11
-53.06002105345209
 21
10.32292903313211
 31
0.0
  0
LINE
  5
168
102
{ACAD_REACTORS
330
26B
330
26C
102
}
330
71
100
AcDbEntity
  8
0
  6
Continuous
 62
     2
100
AcDbLine
 10
-53.06002105345209
 20
10.32292903313211
 30
0.0
 11
-51.86722835128569
 21
10.32292903313211
 31
0.0
  0
LINE
  5
169
102
{ACAD_REACTORS
330
26B
330
26C
102
}
330
71
100
AcDbEntity
  8
0
  6
Continuous
 62
     2
100
AcDbLine
 10
-53.06002105345209
 20
8.40339161816473
 30
0.0
 11
-54.10967863135957
 21
8.40339161816473
 31
0.0
  0
LINE
  5
16A
102
{ACAD_REACTORS
330
26B
330
26C
102
}
330
71
100
AcDbEntity
  8
0
  6
Continuous
 62
     2
100
AcDbLine
 10
-54.10967863135957
 20
8.40339161816473
 30
0.0
 11
-54.10967863135957
 21
7.26911950932092
 31
0.0
  0
LINE
  5
16B
102
{ACAD_REACTORS
330
26B
330
26C
102
}
330
71
100
AcDbEntity
  8
0
  6
Continuous
 62
     2
100
AcDbLine
 10
-55.30247133352617
 20
10.32292903313211
 30
0.0
 11
-55.30247133352617
 21
7.26911950932092
 31
0.0
  0
LINE
  5
16C
102
{ACAD_REACTORS
330
25D
330
25E
102
}
330
71
100
AcDbEntity
  8
0
  6
Continuous
 62
     2
100
AcDbLine
 10
-57.25865136507977
 20
8.9540955383498
 30
0.0
 11
-57.25865136507977
 21
9.65982318769201
 31
0.0
  0
LINE
  5
16D
102
{ACAD_REACTORS
330
25D
330
25E
102
}
330
71
100
AcDbEntity
  8
0
  6
Continuous
 62
     2
100
AcDbLine
 10
-58.49915577533389
 20
7.26911950932092
 30
0.0
 11
-57.25865136507977
 21
7.26911950932092
 31
0.0
  0
LINE
  5
16E
102
{ACAD_REACTORS
330
25D
330
25E
102
}
330
71
100
AcDbEntity
  8
0
  6
Continuous
 62
     2
100
AcDbLine
 10
-57.25865136507977
 20
7.26911950932092
 30
0.0
 11
-57.25865136507977
 21
8.21219775046472
 31
0.0
  0
LINE
  5
16F
102
{ACAD_REACTORS
330
257
330
258
102
}
330
71
100
AcDbEntity
  8
0
  6
Continuous
 62
     2
100
AcDbLine
 10
-62.80410162454527
 20
4.62248458870351
 30
0.0
 11
-64.2799348855549
 21
4.62248458870351
 31
0.0
  0
LINE
  5
170
102
{ACAD_REACTORS
330
257
330
258
102
}
330
71
100
AcDbEntity
  8
0
  6
Continuous
 62
     2
100
AcDbLine
 10
-65.29807417768419
 20
9.89868441773012
 30
0.0
 11
-65.29807417768419
 21
4.33417364852991
 31
0.0
  0
LINE
  5
171
102
{ACAD_REACTORS
330
257
330
258
102
}
330
71
100
AcDbEntity
  8
0
  6
Continuous
 62
     2
100
AcDbLine
 10
-64.87382956230138
 20
10.32292903311392
 30
0.0
 11
-59.40051747158458
 21
10.32292903311392
 31
0.0
  0
LINE
  5
172
102
{ACAD_REACTORS
330
257
330
258
102
}
330
71
100
AcDbEntity
  8
0
  6
Continuous
 62
     2
100
AcDbLine
 10
-58.97627285620069
 20
9.89868441773012
 30
0.0
 11
-58.97627285620069
 21
4.33417364852991
 31
0.0
  0
LINE
  5
173
102
{ACAD_REACTORS
330
257
330
258
102
}
330
71
100
AcDbEntity
  8
0
  6
Continuous
 62
     2
100
AcDbLine
 10
-59.40051747158458
 20
3.90992903314662
 30
0.0
 11
-64.87382956230138
 21
3.90992903314662
 31
0.0
  0
LINE
  5
174
102
{ACAD_REACTORS
330
257
330
258
102
}
330
71
100
AcDbEntity
  8
0
  6
Continuous
 62
     2
100
AcDbLine
 10
-62.48838470146868
 20
4.93820151178022
 30
0.0
 11
-62.48838470146868
 21
6.46897244331183
 31
0.0
  0
LINE
  5
175
102
{ACAD_REACTORS
330
257
330
258
102
}
330
71
100
AcDbEntity
  8
0
  6
Continuous
 62
     2
100
AcDbLine
 10
-62.48838470146868
 20
8.69063193543681
 30
0.0
 11
-62.48838470146868
 21
9.29465655449732
 31
0.0
  0
LINE
  5
176
102
{ACAD_REACTORS
330
257
330
258
102
}
330
71
100
AcDbEntity
  8
0
  6
Continuous
 62
     2
100
AcDbLine
 10
-64.2799348855549
 20
9.61037347757352
 30
0.0
 11
-62.80410162454527
 21
9.61037347757352
 31
0.0
  0
LINE
  5
177
102
{ACAD_REACTORS
330
257
330
258
102
}
330
71
100
AcDbEntity
  8
0
  6
Continuous
 62
     2
100
AcDbLine
 10
-64.59565180863058
 20
9.29465655449732
 30
0.0
 11
-64.59565180863058
 21
4.93820151178022
 31
0.0
  0
LINE
  5
178
102
{ACAD_REACTORS
330
25D
330
25E
102
}
330
71
100
AcDbEntity
  8
0
  6
Continuous
 62
     2
100
AcDbLine
 10
-57.25865136507977
 20
8.21219775046472
 30
0.0
 11
-56.49988377729949
 21
8.21219775046472
 31
0.0
  0
LINE
  5
179
102
{ACAD_REACTORS
330
25D
330
25E
102
}
330
71
100
AcDbEntity
  8
0
  6
Continuous
 62
     2
100
AcDbLine
 10
-58.49915577533389
 20
10.32292903313211
 30
0.0
 11
-56.49988377729949
 21
10.32292903313211
 31
0.0
  0
LINE
  5
17A
102
{ACAD_REACTORS
330
25D
330
25E
102
}
330
71
100
AcDbEntity
  8
0
  6
Continuous
 62
     2
100
AcDbLine
 10
-58.49915577533389
 20
10.32292903313211
 30
0.0
 11
-58.49915577533389
 21
7.26911950932092
 31
0.0
  0
LINE
  5
17B
102
{ACAD_REACTORS
330
25D
330
25E
102
}
330
71
100
AcDbEntity
  8
0
  6
Continuous
 62
     2
100
AcDbLine
 10
-57.25865136507977
 20
8.9540955383498
 30
0.0
 11
-56.94135630353787
 21
8.9540955383498
 31
0.0
  0
LINE
  5
17C
102
{ACAD_REACTORS
330
25D
330
25E
102
}
330
71
100
AcDbEntity
  8
0
  6
Continuous
 62
     2
100
AcDbLine
 10
-57.25865136507977
 20
9.65982318769201
 30
0.0
 11
-56.94135630353787
 21
9.65982318769201
 31
0.0
  0
LINE
  5
17D
102
{ACAD_REACTORS
330
26B
330
26C
102
}
330
71
100
AcDbEntity
  8
0
  6
Continuous
 62
     2
100
AcDbLine
 10
-54.10967863135957
 20
9.25409569979752
 30
0.0
 11
-53.06002105345209
 21
9.25409569979752
 31
0.0
  0
LINE
  5
17E
102
{ACAD_REACTORS
330
26B
330
26C
102
}
330
71
100
AcDbEntity
  8
0
  6
Continuous
 62
     2
100
AcDbLine
 10
-54.10967863135957
 20
10.32292903313211
 30
0.0
 11
-54.10967863135957
 21
9.25409569979752
 31
0.0
  0
LINE
  5
17F
102
{ACAD_REACTORS
330
26B
330
26C
102
}
330
71
100
AcDbEntity
  8
0
  6
Continuous
 62
     2
100
AcDbLine
 10
-55.30247133352617
 20
10.32292903313211
 30
0.0
 11
-54.10967863135957
 21
10.32292903313211
 31
0.0
  0
LINE
  5
180
102
{ACAD_REACTORS
330
26B
330
26C
102
}
330
71
100
AcDbEntity
  8
0
  6
Continuous
 62
     2
100
AcDbLine
 10
-54.10967863135957
 20
7.26911950932092
 30
0.0
 11
-55.30247133352617
 21
7.26911950932092
 31
0.0
  0
LINE
  5
181
102
{ACAD_REACTORS
330
26B
330
26C
102
}
330
71
100
AcDbEntity
  8
0
  6
Continuous
 62
     2
100
AcDbLine
 10
-53.06002105345209
 20
7.26911950932092
 30
0.0
 11
-53.06002105345209
 21
8.40339161816473
 31
0.0
  0
LINE
  5
182
102
{ACAD_REACTORS
330
26B
330
26C
102
}
330
71
100
AcDbEntity
  8
0
  6
Continuous
 62
     2
100
AcDbLine
 10
-51.86722835128569
 20
7.26911950932092
 30
0.0
 11
-53.06002105345209
 21
7.26911950932092
 31
0.0
  0
LINE
  5
183
102
{ACAD_REACTORS
330
26B
330
26C
102
}
330
71
100
AcDbEntity
  8
0
  6
Continuous
 62
     2
100
AcDbLine
 10
-51.86722835128569
 20
10.32292903313211
 30
0.0
 11
-51.86722835128569
 21
7.26911950932092
 31
0.0
  0
LINE
  5
184
102
{ACAD_REACTORS
330
259
330
25A
102
}
330
71
100
AcDbEntity
  8
0
  6
Continuous
 62
     2
100
AcDbLine
 10
-48.38427366095877
 20
8.44701746850512
 30
0.0
 11
-47.04834583453109
 21
8.44701746850512
 31
0.0
  0
LINE
  5
185
102
{ACAD_REACTORS
330
259
330
25A
102
}
330
71
100
AcDbEntity
  8
0
  6
Continuous
 62
     2
100
AcDbLine
 10
-47.04834583453109
 20
8.44701746850512
 30
0.0
 11
-47.04834583453109
 21
9.14503107394742
 31
0.0
  0
LINE
  5
186
102
{ACAD_REACTORS
330
259
330
25A
102
}
330
71
100
AcDbEntity
  8
0
  6
Continuous
 62
     2
100
AcDbLine
 10
-47.04834583453109
 20
9.14503107394742
 30
0.0
 11
-48.38427366095877
 21
9.14503107394742
 31
0.0
  0
LINE
  5
187
102
{ACAD_REACTORS
330
259
330
25A
102
}
330
71
100
AcDbEntity
  8
0
  6
Continuous
 62
     2
100
AcDbLine
 10
-48.38427366095877
 20
9.14503107394742
 30
0.0
 11
-48.38427366095877
 21
9.62491542768913
 31
0.0
  0
LINE
  5
188
102
{ACAD_REACTORS
330
269
330
26A
102
}
330
71
100
AcDbEntity
  8
0
  6
Continuous
 62
     2
100
AcDbLine
 10
-52.05822611451788
 20
3.90992903314662
 30
0.0
 11
-50.86543341235029
 21
3.90992903314662
 31
0.0
  0
LINE
  5
189
102
{ACAD_REACTORS
330
269
330
26A
102
}
330
71
100
AcDbEntity
  8
0
  6
Continuous
 62
     2
100
AcDbLine
 10
-49.62492900209739
 20
3.90992903314662
 30
0.0
 11
-48.43213629993099
 21
3.90992903314662
 31
0.0
  0
LINE
  5
18A
102
{ACAD_REACTORS
330
269
330
26A
102
}
330
71
100
AcDbEntity
  8
0
  6
Continuous
 62
     2
100
AcDbLine
 10
-50.86543341235029
 20
6.96373855695771
 30
0.0
 11
-52.05822611451788
 21
6.96373855695771
 31
0.0
  0
LINE
  5
18B
102
{ACAD_REACTORS
330
269
330
26A
102
}
330
71
100
AcDbEntity
  8
0
  6
Continuous
 62
     2
100
AcDbLine
 10
-52.05822611451788
 20
6.96373855695771
 30
0.0
 11
-52.05822611451788
 21
3.90992903314662
 31
0.0
  0
LINE
  5
18C
102
{ACAD_REACTORS
330
267
330
268
102
}
330
71
100
AcDbEntity
  8
0
  6
Continuous
 62
     2
100
AcDbLine
 10
-44.37649018167767
 20
10.32292903313211
 30
0.0
 11
-44.37649018167767
 21
9.01415352292693
 31
0.0
  0
LINE
  5
18D
102
{ACAD_REACTORS
330
267
330
268
102
}
330
71
100
AcDbEntity
  8
0
  6
Continuous
 62
     2
100
AcDbLine
 10
-45.61699459193167
 20
10.32292903313211
 30
0.0
 11
-46.80978729409819
 21
10.32292903313211
 31
0.0
  0
LINE
  5
18E
102
{ACAD_REACTORS
330
267
330
268
102
}
330
71
100
AcDbEntity
  8
0
  6
Continuous
 62
     2
100
AcDbLine
 10
-46.80978729409819
 20
10.32292903313211
 30
0.0
 11
-46.80978729409819
 21
7.26911950932092
 31
0.0
  0
LINE
  5
18F
102
{ACAD_REACTORS
330
267
330
268
102
}
330
71
100
AcDbEntity
  8
0
  6
Continuous
 62
     2
100
AcDbLine
 10
-45.61699459193167
 20
7.26911950932092
 30
0.0
 11
-45.61699459193167
 21
8.57789501952561
 31
0.0
  0
LINE
  5
190
102
{ACAD_REACTORS
330
265
330
266
102
}
330
71
100
AcDbEntity
  8
0
  6
Continuous
 62
     2
100
AcDbLine
 10
-46.28510943602967
 20
3.90992903314662
 30
0.0
 11
-46.28510943602967
 21
6.17847325083412
 31
0.0
  0
LINE
  5
191
102
{ACAD_REACTORS
330
265
330
266
102
}
330
71
100
AcDbEntity
  8
0
  6
Continuous
 62
     2
100
AcDbLine
 10
-46.28510943602967
 20
6.17847325083412
 30
0.0
 11
-45.47401039855717
 21
6.17847325083412
 31
0.0
  0
LINE
  5
192
102
{ACAD_REACTORS
330
265
330
266
102
}
330
71
100
AcDbEntity
  8
0
  6
Continuous
 62
     2
100
AcDbLine
 10
-45.47401039855717
 20
6.17847325083412
 30
0.0
 11
-45.47401039855717
 21
6.96373855695771
 31
0.0
  0
LINE
  5
193
102
{ACAD_REACTORS
330
265
330
266
102
}
330
71
100
AcDbEntity
  8
0
  6
Continuous
 62
     2
100
AcDbLine
 10
-45.47401039855717
 20
6.96373855695771
 30
0.0
 11
-48.28900117567079
 21
6.96373855695771
 31
0.0
  0
LINE
  5
194
102
{ACAD_REACTORS
330
265
330
266
102
}
330
71
100
AcDbEntity
  8
0
  6
Continuous
 62
     2
100
AcDbLine
 10
-48.28900117567079
 20
6.17847325083412
 30
0.0
 11
-47.47790213819619
 21
6.17847325083412
 31
0.0
  0
LINE
  5
195
102
{ACAD_REACTORS
330
263
330
264
102
}
330
71
100
AcDbEntity
  8
0
  6
Continuous
 62
     2
100
AcDbLine
 10
-44.67950457275978
 20
4.45088957736451
 30
0.0
 11
-43.54706299608597
 21
4.45088957736451
 31
0.0
  0
LINE
  5
196
102
{ACAD_REACTORS
330
263
330
264
102
}
330
71
100
AcDbEntity
  8
0
  6
Continuous
 62
     2
100
AcDbLine
 10
-42.09507853235627
 20
3.90992903314662
 30
0.0
 11
-43.33558294261019
 21
3.90992903314662
 31
0.0
  0
LINE
  5
197
102
{ACAD_REACTORS
330
263
330
264
102
}
330
71
100
AcDbEntity
  8
0
  6
Continuous
 62
     2
100
AcDbLine
 10
-44.73353598954927
 20
6.96373855695771
 30
0.0
 11
-46.13148903648857
 21
3.90992903314662
 31
0.0
  0
LINE
  5
198
102
{ACAD_REACTORS
330
263
330
264
102
}
330
71
100
AcDbEntity
  8
0
  6
Continuous
 62
     2
100
AcDbLine
 10
-44.89098462623559
 20
3.90992903314662
 30
0.0
 11
-44.67950457275978
 21
4.45088957736451
 31
0.0
  0
LINE
  5
199
102
{ACAD_REACTORS
330
263
330
264
102
}
330
71
100
AcDbEntity
  8
0
  6
Continuous
 62
     2
100
AcDbLine
 10
-44.41344902161478
 20
5.13145284267111
 30
0.0
 11
-44.11328378442238
 21
5.89926780865781
 31
0.0
  0
LINE
  5
19A
102
{ACAD_REACTORS
330
261
330
262
102
}
330
71
100
AcDbEntity
  8
0
  6
Continuous
 62
     2
100
AcDbLine
 10
-42.94513893907717
 20
7.26911950932092
 30
0.0
 11
-42.94513893907717
 21
10.32292903313211
 31
0.0
  0
LINE
  5
19B
102
{ACAD_REACTORS
330
261
330
262
102
}
330
71
100
AcDbEntity
  8
0
  6
Continuous
 62
     2
100
AcDbLine
 10
-41.70463452882427
 20
10.32292903313211
 30
0.0
 11
-41.70463452882427
 21
7.26911950932092
 31
0.0
  0
LINE
  5
19C
102
{ACAD_REACTORS
330
261
330
262
102
}
330
71
100
AcDbEntity
  8
0
  6
Continuous
 62
     2
100
AcDbLine
 10
-42.94513893907717
 20
10.32292903313211
 30
0.0
 11
-41.70463452882427
 21
10.32292903313211
 31
0.0
  0
LINE
  5
19D
102
{ACAD_REACTORS
330
25F
330
260
102
}
330
71
100
AcDbEntity
  8
0
  6
Continuous
 62
     2
100
AcDbLine
 10
-39.48604010279348
 20
8.05685129461463
 30
0.0
 11
-38.78944916472798
 21
7.26911950932092
 31
0.0
  0
LINE
  5
19E
102
{ACAD_REACTORS
330
25F
330
260
102
}
330
71
100
AcDbEntity
  8
0
  6
Continuous
 62
     2
100
AcDbLine
 10
-38.78944916472798
 20
7.26911950932092
 30
0.0
 11
-37.38672494697968
 21
7.26911950932092
 31
0.0
  0
LINE
  5
19F
102
{ACAD_REACTORS
330
25F
330
260
102
}
330
71
100
AcDbEntity
  8
0
  6
Continuous
 62
     2
100
AcDbLine
 10
-38.78467799391999
 20
8.84997850309591
 30
0.0
 11
-37.38672494697968
 21
7.26911950932092
 31
0.0
  0
LINE
  5
1A0
102
{ACAD_REACTORS
330
25F
330
260
102
}
330
71
100
AcDbEntity
  8
0
  6
Continuous
 62
     2
100
AcDbLine
 10
-38.78467799391999
 20
8.84997850309591
 30
0.0
 11
-37.48214836315347
 21
10.32292903313211
 31
0.0
  0
LINE
  5
1A1
102
{ACAD_REACTORS
330
25F
330
260
102
}
330
71
100
AcDbEntity
  8
0
  6
Continuous
 62
     2
100
AcDbLine
 10
-39.48604010279348
 20
9.64310571157662
 30
0.0
 11
-38.88487258090069
 21
10.32292903313211
 31
0.0
  0
LINE
  5
1A2
102
{ACAD_REACTORS
330
25F
330
260
102
}
330
71
100
AcDbEntity
  8
0
  6
Continuous
 62
     2
100
AcDbLine
 10
-40.08720762468528
 20
10.32292903313211
 30
0.0
 11
-39.48604010279348
 21
9.64310571157662
 31
0.0
  0
LINE
  5
1A3
102
{ACAD_REACTORS
330
25F
330
260
102
}
330
71
100
AcDbEntity
  8
0
  6
Continuous
 62
     2
100
AcDbLine
 10
-40.08720762468528
 20
10.32292903313211
 30
0.0
 11
-41.48993184243457
 21
10.32292903313211
 31
0.0
  0
LINE
  5
1A4
102
{ACAD_REACTORS
330
255
330
256
102
}
330
71
100
AcDbEntity
  8
0
  6
Continuous
 62
     2
100
AcDbLine
 10
-39.39061668662077
 20
3.90992903314662
 30
0.0
 11
-38.19782398445307
 21
3.90992903314662
 31
0.0
  0
LINE
  5
1A5
102
{ACAD_REACTORS
330
255
330
256
102
}
330
71
100
AcDbEntity
  8
0
  6
Continuous
 62
     2
100
AcDbLine
 10
-38.19782398445307
 20
3.90992903314662
 30
0.0
 11
-38.19782398445307
 21
6.17847325083412
 31
0.0
  0
LINE
  5
1A6
102
{ACAD_REACTORS
330
255
330
256
102
}
330
71
100
AcDbEntity
  8
0
  6
Continuous
 62
     2
100
AcDbLine
 10
-38.19782398445307
 20
6.17847325083412
 30
0.0
 11
-37.38672494697968
 21
6.17847325083412
 31
0.0
  0
LINE
  5
1A7
102
{ACAD_REACTORS
330
255
330
256
102
}
330
71
100
AcDbEntity
  8
0
  6
Continuous
 62
     2
100
AcDbLine
 10
-37.38672494697968
 20
6.17847325083412
 30
0.0
 11
-37.38672494697968
 21
6.96373855695771
 31
0.0
  0
LINE
  5
1A8
102
{ACAD_REACTORS
330
255
330
256
102
}
330
71
100
AcDbEntity
  8
0
  6
Continuous
 62
     2
100
AcDbLine
 10
-40.77167046560837
 20
6.96373855695723
 30
0.0
 11
-37.38672494697968
 21
6.96373855695771
 31
0.0
  0
LINE
  5
1A9
102
{ACAD_REACTORS
330
255
330
256
102
}
330
71
100
AcDbEntity
  8
0
  6
Continuous
 62
     2
100
AcDbLine
 10
-39.39061668662077
 20
6.17847325083412
 30
0.0
 11
-39.39061668662077
 21
3.90992903314662
 31
0.0
  0
LINE
  5
1AA
102
{ACAD_REACTORS
330
257
330
258
102
}
330
71
100
AcDbEntity
  8
0
  6
Continuous
 62
     2
100
AcDbLine
 10
-62.02010312209998
 20
5.88880918271113
 30
0.0
 11
-62.02010312209998
 21
6.47066058940621
 31
0.0
  0
LINE
  5
1AB
102
{ACAD_REACTORS
330
257
330
258
102
}
330
71
100
AcDbEntity
  8
0
  6
Continuous
 62
     2
100
AcDbLine
 10
-62.02010312209998
 20
8.68894378934243
 30
0.0
 11
-62.02010312209998
 21
9.29447907784922
 31
0.0
  0
LINE
  5
1AC
330
71
100
AcDbEntity
  8
1
  6
Continuous
 62
     6
100
AcDbLine
 10
-83.48992453749676
 20
-3.38357096686968
 30
0.0
 11
-69.53472906424679
 21
-3.3835709668698
 31
0.0
  0
LINE
  5
1AD
330
71
100
AcDbEntity
  8
1
  6
Continuous
 62
     6
100
AcDbLine
 10
-133.489924537497
 20
-3.38357096686968
 30
0.0
 11
-138.5347290642468
 21
-3.38357096686968
 31
0.0
  0
LINE
  5
1AE
330
71
100
AcDbEntity
  8
1
  6
Continuous
 62
     6
100
AcDbLine
 10
16.51007546250321
 20
-3.38357096686968
 30
0.0
 11
60.01007546250322
 21
-3.38357096686968
 31
0.0
  0
LINE
  5
1AF
330
71
100
AcDbEntity
  8
1
  6
Continuous
 62
     6
100
AcDbLine
 10
-33.48992453749679
 20
-3.38357096686968
 30
0.0
 11
-51.33472906424677
 21
-3.38357096686968
 31
0.0
  0
LINE
  5
1B0
330
71
100
AcDbEntity
  8
1
  6
Continuous
 62
     2
100
AcDbLine
 10
60.01007546250322
 20
-3.38357096686968
 30
0.0
 11
65.01007546250221
 21
-3.38357096686968
 31
0.0
  0
LINE
  5
1B1
330
71
100
AcDbEntity
  8
1
  6
Continuous
 62
     2
100
AcDbLine
 10
60.01007546250322
 20
-3.38357096686968
 30
0.0
 11
60.01007546250322
 21
-8.3835709668698
 31
0.0
  0
LINE
  5
1B2
330
71
100
AcDbEntity
  8
1
  6
Continuous
 62
     6
100
AcDbLine
 10
-69.53472906424679
 20
13.61642903313032
 30
0.0
 11
-33.13472906424687
 21
13.61642903313032
 31
0.0
  0
LINE
  5
1B3
330
71
100
AcDbEntity
  8
1
  6
Continuous
 62
     2
100
AcDbLine
 10
65.01007546250221
 20
-8.3835709668698
 30
0.0
 11
65.01007546250221
 21
-3.38357096686968
 31
0.0
  0
LINE
  5
1B4
330
71
100
AcDbEntity
  8
1
  6
Continuous
 62
     2
100
AcDbLine
 10
65.01007546250221
 20
-8.3835709668698
 30
0.0
 11
60.01007546250322
 21
-8.3835709668698
 31
0.0
  0
LINE
  5
1B5
330
71
100
AcDbEntity
  8
1
  6
Continuous
 62
     2
100
AcDbLine
 10
60.01007546250322
 20
-8.3835709668698
 30
0.0
 11
16.51007546250321
 21
-8.3835709668698
 31
0.0
  0
LINE
  5
1B6
330
71
100
AcDbEntity
  8
1
  6
Continuous
 62
     6
100
AcDbLine
 10
60.01007546250492
 20
13.61642903313032
 30
0.0
 11
60.01007546250412
 21
46.61642903313043
 31
0.0
  0
LINE
  5
1B7
330
71
100
AcDbEntity
  8
1
  6
Continuous
 62
     2
100
AcDbLine
 10
65.01007546250221
 20
201.6164290331303
 30
0.0
 11
-83.48992453749676
 21
201.6164290331303
 31
0.0
  0
LINE
  5
1B8
330
71
100
AcDbEntity
  8
1
  6
Continuous
 62
     6
100
AcDbLine
 10
60.01007546250222
 20
181.6164290331303
 30
0.0
 11
-226.9899245374959
 21
181.6164290331303
 31
0.0
  0
LINE
  5
1B9
330
71
100
AcDbEntity
  8
1
  6
Continuous
 62
     2
100
AcDbLine
 10
60.01007546250412
 20
46.61642903313043
 30
0.0
 11
65.01007546250221
 21
46.61642903313043
 31
0.0
  0
LINE
  5
1BA
330
71
100
AcDbEntity
  8
1
  6
Continuous
 62
     6
100
AcDbLine
 10
60.01007546250412
 20
46.61642903313043
 30
0.0
 11
60.01007546250362
 21
96.61642903313023
 31
0.0
  0
LINE
  5
1BB
330
71
100
AcDbEntity
  8
1
  6
Continuous
 62
     2
100
AcDbLine
 10
65.01007546250221
 20
46.61642903313043
 30
0.0
 11
65.01007546250221
 21
96.61642903313023
 31
0.0
  0
LINE
  5
1BC
330
71
100
AcDbEntity
  8
1
  6
Continuous
 62
     2
100
AcDbLine
 10
60.01007546250362
 20
96.61642903313023
 30
0.0
 11
65.01007546250221
 21
96.61642903313023
 31
0.0
  0
LINE
  5
1BD
330
71
100
AcDbEntity
  8
1
  6
Continuous
 62
     6
100
AcDbLine
 10
60.01007546250362
 20
96.61642903313023
 30
0.0
 11
60.01007546250241
 21
146.6164290331303
 31
0.0
  0
LINE
  5
1BE
330
71
100
AcDbEntity
  8
1
  6
Continuous
 62
     2
100
AcDbLine
 10
65.01007546250221
 20
96.61642903313023
 30
0.0
 11
65.01007546250221
 21
146.6164290331303
 31
0.0
  0
LINE
  5
1BF
330
71
100
AcDbEntity
  8
1
  6
Continuous
 62
     2
100
AcDbLine
 10
60.01007546250241
 20
146.6164290331303
 30
0.0
 11
65.01007546250221
 21
146.6164290331303
 31
0.0
  0
LINE
  5
1C0
330
71
100
AcDbEntity
  8
1
  6
Continuous
 62
     6
100
AcDbLine
 10
60.01007546250241
 20
146.6164290331303
 30
0.0
 11
60.01007546250222
 21
181.6164290331303
 31
0.0
  0
LINE
  5
1C1
330
71
100
AcDbEntity
  8
1
  6
Continuous
 62
     2
100
AcDbLine
 10
65.01007546250221
 20
146.6164290331303
 30
0.0
 11
65.01007546250221
 21
201.6164290331303
 31
0.0
  0
LINE
  5
1C2
330
71
100
AcDbEntity
  8
1
  6
Continuous
 62
     2
100
AcDbLine
 10
65.01007546250221
 20
-3.38357096686968
 30
0.0
 11
65.01007546250221
 21
46.61642903313043
 31
0.0
  0
LINE
  5
1C3
330
71
100
AcDbEntity
  8
1
  6
Continuous
 62
     2
100
AcDbLine
 10
-83.48992453749676
 20
201.6164290331303
 30
0.0
 11
-231.9899245374959
 21
201.6164290331303
 31
0.0
  0
LINE
  5
1C4
330
71
100
AcDbEntity
  8
1
  6
Continuous
 62
     2
100
AcDbLine
 10
-83.48992453749676
 20
201.6164290331303
 30
0.0
 11
-83.48992453749676
 21
192.407737188429
 31
0.0
  0
LINE
  5
1C5
330
71
100
AcDbEntity
  8
1
  6
Continuous
 62
     2
100
AcDbLine
 10
-231.9899245374959
 20
-8.3835709668698
 30
0.0
 11
-226.9899245374949
 21
-8.3835709668698
 31
0.0
  0
LINE
  5
1C6
330
71
100
AcDbEntity
  8
1
  6
Continuous
 62
     2
100
AcDbLine
 10
-231.9899245374959
 20
201.6164290331303
 30
0.0
 11
-231.9899245374959
 21
146.6164290331303
 31
0.0
  0
LINE
  5
1C7
330
71
100
AcDbEntity
  8
1
  6
Continuous
 62
     6
100
AcDbLine
 10
-226.9899245374959
 20
181.6164290331303
 30
0.0
 11
-226.9899245374958
 21
146.6164290331303
 31
0.0
  0
LINE
  5
1C8
330
71
100
AcDbEntity
  8
1
  6
Continuous
 62
     2
100
AcDbLine
 10
-231.9899245374959
 20
146.6164290331303
 30
0.0
 11
-226.9899245374958
 21
146.6164290331303
 31
0.0
  0
LINE
  5
1C9
330
71
100
AcDbEntity
  8
1
  6
Continuous
 62
     2
100
AcDbLine
 10
-231.9899245374959
 20
146.6164290331303
 30
0.0
 11
-231.9899245374959
 21
96.61642903313023
 31
0.0
  0
LINE
  5
1CA
330
71
100
AcDbEntity
  8
1
  6
Continuous
 62
     6
100
AcDbLine
 10
-226.9899245374958
 20
146.6164290331303
 30
0.0
 11
-226.9899245374953
 21
96.61642903313023
 31
0.0
  0
LINE
  5
1CB
330
71
100
AcDbEntity
  8
1
  6
Continuous
 62
     2
100
AcDbLine
 10
-231.9899245374959
 20
96.61642903313023
 30
0.0
 11
-226.9899245374953
 21
96.61642903313023
 31
0.0
  0
LINE
  5
1CC
330
71
100
AcDbEntity
  8
1
  6
Continuous
 62
     2
100
AcDbLine
 10
-231.9899245374959
 20
96.61642903313023
 30
0.0
 11
-231.9899245374959
 21
46.61642903313043
 31
0.0
  0
LINE
  5
1CD
330
71
100
AcDbEntity
  8
1
  6
Continuous
 62
     6
100
AcDbLine
 10
-226.9899245374953
 20
96.61642903313023
 30
0.0
 11
-226.9899245374951
 21
46.61642903313043
 31
0.0
  0
LINE
  5
1CE
330
71
100
AcDbEntity
  8
1
  6
Continuous
 62
     2
100
AcDbLine
 10
-231.9899245374959
 20
46.61642903313043
 30
0.0
 11
-226.9899245374951
 21
46.61642903313043
 31
0.0
  0
LINE
  5
1CF
330
71
100
AcDbEntity
  8
1
  6
Continuous
 62
     2
100
AcDbLine
 10
-231.9899245374959
 20
46.61642903313043
 30
0.0
 11
-231.9899245374959
 21
-3.38357096686968
 31
0.0
  0
LINE
  5
1D0
330
71
100
AcDbEntity
  8
1
  6
Continuous
 62
     6
100
AcDbLine
 10
-226.9899245374951
 20
46.61642903313043
 30
0.0
 11
-226.9899245374949
 21
-3.38357096686968
 31
0.0
  0
LINE
  5
1D1
330
71
100
AcDbEntity
  8
1
  6
Continuous
 62
     2
100
AcDbLine
 10
-183.4899245374968
 20
-8.3835709668698
 30
0.0
 11
-183.4899245374968
 21
-3.38357096686968
 31
0.0
  0
LINE
  5
1D2
330
71
100
AcDbEntity
  8
1
  6
Continuous
 62
     2
100
AcDbLine
 10
-183.4899245374968
 20
-8.3835709668698
 30
0.0
 11
-133.489924537497
 21
-8.3835709668698
 31
0.0
  0
LINE
  5
1D3
330
71
100
AcDbEntity
  8
1
  6
Continuous
 62
     2
100
AcDbLine
 10
-133.489924537497
 20
-8.3835709668698
 30
0.0
 11
-133.489924537497
 21
-3.38357096686968
 31
0.0
  0
LINE
  5
1D4
330
71
100
AcDbEntity
  8
1
  6
Continuous
 62
     2
100
AcDbLine
 10
-133.489924537497
 20
-8.3835709668698
 30
0.0
 11
-83.48992453749676
 21
-8.3835709668698
 31
0.0
  0
LINE
  5
1D5
330
71
100
AcDbEntity
  8
1
  6
Continuous
 62
     2
100
AcDbLine
 10
-83.48992453749676
 20
-8.3835709668698
 30
0.0
 11
-83.48992453749676
 21
-3.38357096686968
 31
0.0
  0
LINE
  5
1D6
330
71
100
AcDbEntity
  8
1
  6
Continuous
 62
     2
100
AcDbLine
 10
-83.48992453749676
 20
-8.3835709668698
 30
0.0
 11
-33.48992453749679
 21
-8.3835709668698
 31
0.0
  0
LINE
  5
1D7
330
71
100
AcDbEntity
  8
1
  6
Continuous
 62
     2
100
AcDbLine
 10
-33.48992453749679
 20
-8.3835709668698
 30
0.0
 11
-33.48992453749679
 21
-3.38357096686968
 31
0.0
  0
LINE
  5
1D8
330
71
100
AcDbEntity
  8
1
  6
Continuous
 62
     2
100
AcDbLine
 10
16.51007546250321
 20
-8.3835709668698
 30
0.0
 11
16.51007546250321
 21
-3.38357096686968
 31
0.0
  0
LINE
  5
1D9
330
71
100
AcDbEntity
  8
1
  6
Continuous
 62
     2
100
AcDbLine
 10
16.51007546250321
 20
-8.3835709668698
 30
0.0
 11
-33.48992453749679
 21
-8.3835709668698
 31
0.0
  0
LINE
  5
1DA
330
71
100
AcDbEntity
  8
1
  6
Continuous
 62
     2
100
AcDbLine
 10
-226.9899245374949
 20
-3.38357096686968
 30
0.0
 11
-226.9899245374949
 21
-8.3835709668698
 31
0.0
  0
LINE
  5
1DB
330
71
100
AcDbEntity
  8
1
  6
Continuous
 62
     2
100
AcDbLine
 10
-226.9899245374949
 20
-8.3835709668698
 30
0.0
 11
-183.4899245374968
 21
-8.3835709668698
 31
0.0
  0
LINE
  5
1DC
330
71
100
AcDbEntity
  8
1
  6
Continuous
 62
     2
100
AcDbLine
 10
-226.9899245374949
 20
-3.38357096686968
 30
0.0
 11
-231.9899245374959
 21
-3.38357096686968
 31
0.0
  0
LINE
  5
1DD
330
71
100
AcDbEntity
  8
1
  6
Continuous
 62
     2
100
AcDbLine
 10
-231.9899245374959
 20
-3.38357096686968
 30
0.0
 11
-231.9899245374959
 21
-8.3835709668698
 31
0.0
  0
LINE
  5
1DE
330
71
100
AcDbEntity
  8
1
  6
Continuous
 62
     6
100
AcDbLine
 10
60.01007546250322
 20
-3.38357096686968
 30
0.0
 11
60.01007546250452
 21
5.11642903313032
 31
0.0
  0
LINE
  5
1DF
330
71
100
AcDbEntity
  8
1
  6
Continuous
 62
     6
100
AcDbLine
 10
-33.13472906424687
 20
-3.3835709668698
 30
0.0
 11
16.51007546250321
 21
-3.38357096686968
 31
0.0
  0
LINE
  5
1E0
330
71
100
AcDbEntity
  8
1
  6
Continuous
 62
     6
100
AcDbLine
 10
-185.789924537497
 20
-3.3835709668698
 30
0.0
 11
-183.4899245374968
 21
-3.38357096686968
 31
0.0
  0
LINE
  5
1E1
330
71
100
AcDbEntity
  8
1
  6
Continuous
 62
     6
100
AcDbLine
 10
-83.48992453749676
 20
-3.38357096686968
 30
0.0
 11
-133.489924537497
 21
-3.38357096686968
 31
0.0
  0
LINE
  5
1E2
330
71
100
AcDbEntity
  8
1
  6
Continuous
 62
     7
100
AcDbLine
 10
-69.53472906424679
 20
13.61642903313032
 30
0.0
 11
-69.53472906424679
 21
0.8664290331302
 31
0.0
  0
LINE
  5
1E3
330
71
100
AcDbEntity
  8
1
  6
Continuous
 62
     7
100
AcDbLine
 10
-33.13472906424687
 20
13.61642903313032
 30
0.0
 11
-33.13472906424687
 21
0.86642903313032
 31
0.0
  0
LINE
  5
1E4
330
71
100
AcDbEntity
  8
1
  6
Continuous
 62
     6
100
AcDbLine
 10
-185.789924537497
 20
-3.3835709668698
 30
0.0
 11
-191.989924537495
 21
-3.38357096686968
 31
0.0
  0
LINE
  5
1E5
330
71
100
AcDbEntity
  8
1
  6
Continuous
 62
     6
100
AcDbLine
 10
-33.13472906424687
 20
-3.3835709668698
 30
0.0
 11
-33.48992453749679
 21
-3.38357096686968
 31
0.0
  0
LINE
  5
1E6
330
71
100
AcDbEntity
  8
1
  6
Continuous
 62
     6
100
AcDbLine
 10
60.01007546250492
 20
13.61642903313032
 30
0.0
 11
60.01007546250452
 21
5.11642903313032
 31
0.0
  0
LINE
  5
1E7
330
71
100
AcDbEntity
  8
1
  6
Continuous
 62
     6
100
AcDbLine
 10
-191.989924537495
 20
-3.38357096686968
 30
0.0
 11
-226.9899245374949
 21
-3.38357096686968
 31
0.0
  0
LINE
  5
1E8
330
71
100
AcDbEntity
  8
1
  6
Continuous
 62
     2
100
AcDbLine
 10
-65.29807417768419
 20
18.99142903313023
 30
0.0
 11
-60.29807417768419
 21
20.24142903313023
 31
0.0
  0
LINE
  5
1E9
330
71
100
AcDbEntity
  8
1
  6
Continuous
 62
     2
100
AcDbLine
 10
-65.29807417768419
 20
16.49142903313023
 30
0.0
 11
-65.29807417768419
 21
18.99142903313023
 31
0.0
  0
LINE
  5
1EA
330
71
100
AcDbEntity
  8
1
  6
Continuous
 62
     2
100
AcDbLine
 10
-60.29807417768419
 20
15.24142903313023
 30
0.0
 11
-65.29807417768419
 21
16.49142903313023
 31
0.0
  0
LINE
  5
1EB
330
71
100
AcDbEntity
  8
1
  6
Continuous
 62
     2
100
AcDbLine
 10
-60.29807417768419
 20
20.24142903313023
 30
0.0
 11
-60.29807417768419
 21
15.24142903313023
 31
0.0
  0
LINE
  5
1EC
330
71
100
AcDbEntity
  8
1
  6
Continuous
 62
     7
100
AcDbLine
 10
-69.53472906424679
 20
0.8664290331302
 30
0.0
 11
-51.33472906424677
 21
0.86642903313032
 31
0.0
  0
LINE
  5
1ED
330
71
100
AcDbEntity
  8
1
  6
Continuous
 62
     7
100
AcDbLine
 10
-69.53472906424679
 20
0.8664290331302
 30
0.0
 11
-69.53472906424679
 21
-3.3835709668698
 31
0.0
  0
LINE
  5
1EE
330
71
100
AcDbEntity
  8
1
  6
Continuous
 62
     7
100
AcDbLine
 10
-33.13472906424687
 20
0.86642903313032
 30
0.0
 11
-33.13472906424687
 21
-3.3835709668698
 31
0.0
  0
LINE
  5
1EF
330
71
100
AcDbEntity
  8
1
  6
Continuous
 62
     7
100
AcDbLine
 10
-51.33472906424677
 20
0.86642903313032
 30
0.0
 11
-51.33472906424677
 21
-3.38357096686968
 31
0.0
  0
LINE
  5
1F0
330
71
100
AcDbEntity
  8
1
  6
Continuous
 62
     6
100
AcDbLine
 10
-51.33472906424677
 20
-3.38357096686968
 30
0.0
 11
-69.53472906424679
 21
-3.3835709668698
 31
0.0
  0
LINE
  5
1F1
330
71
100
AcDbEntity
  8
1
  6
Continuous
 62
     7
100
AcDbLine
 10
-51.33472906424677
 20
0.86642903313032
 30
0.0
 11
-33.13472906424687
 21
0.86642903313032
 31
0.0
  0
LINE
  5
1F2
330
71
100
AcDbEntity
  8
1
  6
Continuous
 62
     6
100
AcDbLine
 10
-69.53472906424679
 20
22.11642903313032
 30
0.0
 11
60.01007546250492
 21
22.11642903313032
 31
0.0
  0
ARC
  5
1F3
102
{ACAD_REACTORS
330
25B
330
25C
102
}
330
71
100
AcDbEntity
  8
0
  6
Continuous
 62
     2
100
AcDbCircle
 10
-54.14308106528679
 20
5.43683379505191
 30
0.0
 40
0.7717997786797003
100
AcDbArc
 50
321.879580202842
 51
38.12041979715296
  0
ARC
  5
1F4
102
{ACAD_REACTORS
330
25B
330
25C
102
}
330
71
100
AcDbEntity
  8
0
  6
Continuous
 62
     2
100
AcDbCircle
 10
-53.94334102894038
 20
5.28010261693191
 30
0.0
 40
0.5179085730137354
100
AcDbArc
 50
218.1204197971931
 51
321.8795802028015
  0
ARC
  5
1F5
102
{ACAD_REACTORS
330
25B
330
25C
102
}
330
71
100
AcDbEntity
  8
0
  6
Continuous
 62
     2
100
AcDbCircle
 10
-53.74360099259428
 20
5.43683379505191
 30
0.0
 40
0.7717997786794633
100
AcDbArc
 50
141.8795802028363
 51
218.1204197971687
  0
ARC
  5
1F6
102
{ACAD_REACTORS
330
25B
330
25C
102
}
330
71
100
AcDbEntity
  8
0
  6
Continuous
 62
     2
100
AcDbCircle
 10
-53.94334102894038
 20
5.59356497317242
 30
0.0
 40
0.5179085730133054
100
AcDbArc
 50
38.12041979714655
 51
141.8795802028588
  0
ARC
  5
1F7
102
{ACAD_REACTORS
330
253
330
254
102
}
330
71
100
AcDbEntity
  8
0
  6
Continuous
 62
     2
100
AcDbCircle
 10
-57.00535516450427
 20
4.02636742964373
 30
0.0
 40
2.227384008973478
100
AcDbArc
 50
58.06909105004073
 51
71.55192388186705
  0
ARC
  5
1F8
102
{ACAD_REACTORS
330
253
330
254
102
}
330
71
100
AcDbEntity
  8
0
  6
Continuous
 62
     2
100
AcDbCircle
 10
-56.74362746354549
 20
5.64190522439091
 30
0.0
 40
0.5115800601948807
100
AcDbArc
 50
113.3722778881999
 51
151.4785267423047
  0
ARC
  5
1F9
102
{ACAD_REACTORS
330
253
330
254
102
}
330
71
100
AcDbEntity
  8
0
  6
Continuous
 62
     2
100
AcDbCircle
 10
-56.36627020546519
 20
5.43683379505191
 30
0.0
 40
0.9410597353332487
100
AcDbArc
 50
151.4785267422666
 51
208.5214732577059
  0
ARC
  5
1FA
102
{ACAD_REACTORS
330
253
330
254
102
}
330
71
100
AcDbEntity
  8
0
  6
Continuous
 62
     2
100
AcDbCircle
 10
-57.16322803959719
 20
8.74951474030831
 30
0.0
 40
4.85259686349814
100
AcDbArc
 50
275.1581447696251
 51
285.9799912583529
  0
ARC
  5
1FB
102
{ACAD_REACTORS
330
253
330
254
102
}
330
71
100
AcDbEntity
  8
0
  6
Continuous
 62
     2
100
AcDbCircle
 10
-56.87437194486128
 20
5.54962415708673
 30
0.0
 40
1.639695123939388
100
AcDbArc
 50
195.0618917770896
 51
275.1581447696398
  0
ARC
  5
1FC
102
{ACAD_REACTORS
330
253
330
254
102
}
330
71
100
AcDbEntity
  8
0
  6
Continuous
 62
     2
100
AcDbCircle
 10
-57.29349978832408
 20
5.43683379505191
 30
0.0
 40
1.205656168390951
100
AcDbArc
 50
164.9381082228765
 51
195.0618917770948
  0
ARC
  5
1FD
102
{ACAD_REACTORS
330
253
330
254
102
}
330
71
100
AcDbEntity
  8
0
  6
Continuous
 62
     2
100
AcDbCircle
 10
-56.87437194486128
 20
5.32404343301701
 30
0.0
 40
1.639695123940507
100
AcDbArc
 50
84.84185523036211
 51
164.9381082228864
  0
ARC
  5
1FE
102
{ACAD_REACTORS
330
257
330
258
102
}
330
71
100
AcDbEntity
  8
0
  6
Continuous
 62
     2
100
AcDbCircle
 10
-61.70438619902319
 20
6.47066058940621
 30
0.0
 40
0.3157169230765366
100
AcDbArc
 50
115.3740086783529
 51
180.0
  0
ARC
  5
1FF
102
{ACAD_REACTORS
330
257
330
258
102
}
330
71
100
AcDbEntity
  8
0
  6
Continuous
 62
     2
100
AcDbCircle
 10
-61.70438619902319
 20
8.68894378934243
 30
0.0
 40
0.315716923076792
100
AcDbArc
 50
180.0
 51
244.6259913216469
  0
ARC
  5
200
102
{ACAD_REACTORS
330
257
330
258
102
}
330
71
100
AcDbEntity
  8
0
  6
Continuous
 62
     2
100
AcDbCircle
 10
-61.69877006371317
 20
7.59164413028012
 30
0.0
 40
2.018561131933266
100
AcDbArc
 50
269.8110329575858
 51
90.18896704241416
  0
ARC
  5
201
102
{ACAD_REACTORS
330
257
330
258
102
}
330
71
100
AcDbEntity
  8
0
  6
Continuous
 62
     2
100
AcDbCircle
 10
-61.70438619902319
 20
5.88880918271113
 30
0.0
 40
0.315716923076792
100
AcDbArc
 50
180.0
 51
269.8110329574542
  0
ARC
  5
202
102
{ACAD_REACTORS
330
255
330
256
102
}
330
71
100
AcDbEntity
  8
0
  6
Continuous
 62
     2
100
AcDbCircle
 10
-40.64092598429258
 20
5.64190522439091
 30
0.0
 40
0.5115800601944166
100
AcDbArc
 50
109.337143219486
 51
151.4785267424228
  0
ARC
  5
203
102
{ACAD_REACTORS
330
255
330
256
102
}
330
71
100
AcDbEntity
  8
0
  6
Continuous
 62
     2
100
AcDbCircle
 10
-40.64092598429258
 20
5.23176236571342
 30
0.0
 40
0.5115800601960279
100
AcDbArc
 50
208.5214732576862
 51
246.6277221118449
  0
ARC
  5
204
102
{ACAD_REACTORS
330
255
330
256
102
}
330
71
100
AcDbEntity
  8
0
  6
Continuous
 62
     2
100
AcDbCircle
 10
-41.19079830906998
 20
5.43683379505191
 30
0.0
 40
1.205656168392996
100
AcDbArc
 50
164.9381082229027
 51
195.061891777096
  0
ARC
  5
205
102
{ACAD_REACTORS
330
255
330
256
102
}
330
71
100
AcDbEntity
  8
0
  6
Continuous
 62
     2
100
AcDbCircle
 10
-40.77167046560837
 20
5.32404343301701
 30
0.0
 40
1.639695123940215
100
AcDbArc
 50
90.0
 51
164.9381082228949
  0
ARC
  5
206
102
{ACAD_REACTORS
330
259
330
25A
102
}
330
71
100
AcDbEntity
  8
0
  6
Continuous
 62
     2
100
AcDbCircle
 10
-50.19866555831209
 20
8.79602427122623
 30
0.0
 40
1.526904761905881
100
AcDbArc
 50
90.0
 51
270.0
  0
ARC
  5
207
102
{ACAD_REACTORS
330
25D
330
25E
102
}
330
71
100
AcDbEntity
  8
0
  6
Continuous
 62
     2
100
AcDbCircle
 10
-56.94135630353787
 20
9.30695936302092
 30
0.0
 40
0.3528638246711182
100
AcDbArc
 50
270.0
 51
90.0
  0
ARC
  5
208
102
{ACAD_REACTORS
330
257
330
258
102
}
330
71
100
AcDbEntity
  8
0
  6
Continuous
 62
     2
100
AcDbCircle
 10
-64.2799348855549
 20
9.29465655449732
 30
0.0
 40
0.3157169230761951
100
AcDbArc
 50
90.0
 51
180.0
  0
ARC
  5
209
102
{ACAD_REACTORS
330
257
330
258
102
}
330
71
100
AcDbEntity
  8
0
  6
Continuous
 62
     2
100
AcDbCircle
 10
-62.28151717697028
 20
7.57980218937462
 30
0.0
 40
0.9118975235576147
100
AcDbArc
 50
115.1944106485282
 51
244.8055893514878
  0
ARC
  5
20A
102
{ACAD_REACTORS
330
257
330
258
102
}
330
71
100
AcDbEntity
  8
0
  6
Continuous
 62
     2
100
AcDbCircle
 10
-62.80410162454527
 20
6.46897244331183
 30
0.0
 40
0.3157169230765859
100
AcDbArc
 50
0.0
 51
64.80558935146027
  0
ARC
  5
20B
102
{ACAD_REACTORS
330
257
330
258
102
}
330
71
100
AcDbEntity
  8
0
  6
Continuous
 62
     2
100
AcDbCircle
 10
-64.87382956230138
 20
4.33417364852991
 30
0.0
 40
0.4242446153828041
100
AcDbArc
 50
180.0
 51
270.0
  0
ARC
  5
20C
102
{ACAD_REACTORS
330
259
330
25A
102
}
330
71
100
AcDbEntity
  8
0
  6
Continuous
 62
     2
100
AcDbCircle
 10
-49.98239354814689
 20
8.95275544934671
 30
0.0
 40
0.5179085730135266
100
AcDbArc
 50
38.12041979714334
 51
141.8795802028489
  0
ARC
  5
20D
102
{ACAD_REACTORS
330
259
330
25A
102
}
330
71
100
AcDbEntity
  8
0
  6
Continuous
 62
     2
100
AcDbCircle
 10
-49.78265351180059
 20
8.79602427122623
 30
0.0
 40
0.7717997786796724
100
AcDbArc
 50
141.8795802028404
 51
218.1204197971562
  0
ARC
  5
20E
102
{ACAD_REACTORS
330
25B
330
25C
102
}
330
71
100
AcDbEntity
  8
0
  6
Continuous
 62
     2
100
AcDbCircle
 10
-53.94334102894038
 20
5.97540880535522
 30
0.0
 40
2.065479772208508
100
AcDbArc
 50
242.4518518243402
 51
297.5481481756869
  0
ARC
  5
20F
102
{ACAD_REACTORS
330
25B
330
25C
102
}
330
71
100
AcDbEntity
  8
0
  6
Continuous
 62
     2
100
AcDbCircle
 10
-53.94334102894038
 20
4.89825878474912
 30
0.0
 40
2.065479772208564
100
AcDbArc
 50
62.45185182430653
 51
117.5481481756664
  0
ARC
  5
210
102
{ACAD_REACTORS
330
25B
330
25C
102
}
330
71
100
AcDbEntity
  8
0
  6
Continuous
 62
     2
100
AcDbCircle
 10
-54.22428092077368
 20
5.43683379505191
 30
0.0
 40
1.45803408365149
100
AcDbArc
 50
117.5481481756624
 51
242.4518518243375
  0
ARC
  5
211
102
{ACAD_REACTORS
330
25B
330
25C
102
}
330
71
100
AcDbEntity
  8
0
  6
Continuous
 62
     2
100
AcDbCircle
 10
-53.66240113710708
 20
5.43683379505191
 30
0.0
 40
1.458034083651999
100
AcDbArc
 50
297.5481481757009
 51
62.4518518242992
  0
ARC
  5
212
102
{ACAD_REACTORS
330
259
330
25A
102
}
330
71
100
AcDbEntity
  8
0
  6
Continuous
 62
     2
100
AcDbCircle
 10
-49.98239354814689
 20
8.63929309310581
 30
0.0
 40
0.5179085730134372
100
AcDbArc
 50
218.1204197971511
 51
321.8795802028566
  0
ARC
  5
213
102
{ACAD_REACTORS
330
259
330
25A
102
}
330
71
100
AcDbEntity
  8
0
  6
Continuous
 62
     2
100
AcDbCircle
 10
-50.18213358449307
 20
8.79602427122623
 30
0.0
 40
0.7717997786796373
100
AcDbArc
 50
321.8795802028437
 51
38.12041979715956
  0
ARC
  5
214
102
{ACAD_REACTORS
330
257
330
258
102
}
330
71
100
AcDbEntity
  8
0
  6
Continuous
 62
     2
100
AcDbCircle
 10
-59.40051747158458
 20
4.33417364852991
 30
0.0
 40
0.4242446153832873
100
AcDbArc
 50
270.0
 51
0.0
  0
ARC
  5
215
102
{ACAD_REACTORS
330
257
330
258
102
}
330
71
100
AcDbEntity
  8
0
  6
Continuous
 62
     2
100
AcDbCircle
 10
-59.40051747158458
 20
9.89868441773012
 30
0.0
 40
0.4242446153838912
100
AcDbArc
 50
0.0
 51
90.0
  0
ARC
  5
216
102
{ACAD_REACTORS
330
257
330
258
102
}
330
71
100
AcDbEntity
  8
0
  6
Continuous
 62
     2
100
AcDbCircle
 10
-64.87382956230138
 20
9.89868441773012
 30
0.0
 40
0.4242446153837971
100
AcDbArc
 50
90.0
 51
180.0
  0
ARC
  5
217
102
{ACAD_REACTORS
330
257
330
258
102
}
330
71
100
AcDbEntity
  8
0
  6
Continuous
 62
     2
100
AcDbCircle
 10
-62.80410162454527
 20
4.93820151178022
 30
0.0
 40
0.3157169230767067
100
AcDbArc
 50
270.0
 51
0.0
  0
ARC
  5
218
102
{ACAD_REACTORS
330
257
330
258
102
}
330
71
100
AcDbEntity
  8
0
  6
Continuous
 62
     2
100
AcDbCircle
 10
-62.80410162454527
 20
8.69063193543681
 30
0.0
 40
0.3157169230761203
100
AcDbArc
 50
295.1944106485397
 51
0.0
  0
ARC
  5
219
102
{ACAD_REACTORS
330
257
330
258
102
}
330
71
100
AcDbEntity
  8
0
  6
Continuous
 62
     2
100
AcDbCircle
 10
-62.80410162454527
 20
9.29465655449732
 30
0.0
 40
0.3157169230765859
100
AcDbArc
 50
0.0
 51
90.0
  0
ARC
  5
21A
102
{ACAD_REACTORS
330
257
330
258
102
}
330
71
100
AcDbEntity
  8
0
  6
Continuous
 62
     2
100
AcDbCircle
 10
-64.2799348855549
 20
4.93820151178022
 30
0.0
 40
0.3157169230756836
100
AcDbArc
 50
180.0
 51
270.0
  0
ARC
  5
21B
102
{ACAD_REACTORS
330
25D
330
25E
102
}
330
71
100
AcDbEntity
  8
0
  6
Continuous
 62
     2
100
AcDbCircle
 10
-56.49988377729949
 20
9.26756339179843
 30
0.0
 40
1.055365641333708
100
AcDbArc
 50
270.0
 51
90.0
  0
ARC
  5
21C
102
{ACAD_REACTORS
330
255
330
256
102
}
330
71
100
AcDbEntity
  8
0
  6
Continuous
 62
     2
100
AcDbCircle
 10
-40.77167046560837
 20
5.54962415708673
 30
0.0
 40
1.639695123940442
100
AcDbArc
 50
195.0618917771013
 51
275.1581447696765
  0
ARC
  5
21D
102
{ACAD_REACTORS
330
255
330
256
102
}
330
71
100
AcDbEntity
  8
0
  6
Continuous
 62
     2
100
AcDbCircle
 10
-41.06052656034419
 20
8.74951474030831
 30
0.0
 40
4.852596863498825
100
AcDbArc
 50
275.1581447696364
 51
285.9799912583386
  0
ARC
  5
21E
102
{ACAD_REACTORS
330
255
330
256
102
}
330
71
100
AcDbEntity
  8
0
  6
Continuous
 62
     2
100
AcDbCircle
 10
-40.90265368525138
 20
6.84730016046001
 30
0.0
 40
2.227384008972747
100
AcDbArc
 50
288.4480761181335
 51
301.9309089499395
  0
ARC
  5
21F
102
{ACAD_REACTORS
330
255
330
256
102
}
330
71
100
AcDbEntity
  8
0
  6
Continuous
 62
     2
100
AcDbCircle
 10
-40.48448595158948
 20
5.59375438442342
 30
0.0
 40
0.9059297849852801
100
AcDbArc
 50
246.6277221118183
 51
288.4480761180817
  0
ARC
  5
220
102
{ACAD_REACTORS
330
255
330
256
102
}
330
71
100
AcDbEntity
  8
0
  6
Continuous
 62
     2
100
AcDbCircle
 10
-40.26356872621119
 20
5.43683379505191
 30
0.0
 40
0.9410597353348987
100
AcDbArc
 50
151.4785267423626
 51
208.5214732576693
  0
ARC
  5
221
102
{ACAD_REACTORS
330
255
330
256
102
}
330
71
100
AcDbEntity
  8
0
  6
Continuous
 62
     2
100
AcDbCircle
 10
-40.49425598618888
 20
5.22395024400802
 30
0.0
 40
0.9545230068260944
100
AcDbArc
 50
90.0
 51
109.337143219432
  0
ARC
  5
222
102
{ACAD_REACTORS
330
257
330
258
102
}
330
71
100
AcDbEntity
  8
0
  6
Continuous
 62
     2
100
AcDbCircle
 10
-61.70438619902319
 20
9.29447907784922
 30
0.0
 40
0.3157169230760711
100
AcDbArc
 50
90.18896704254594
 51
180.0
  0
ARC
  5
223
102
{ACAD_REACTORS
330
257
330
258
102
}
330
71
100
AcDbEntity
  8
0
  6
Continuous
 62
     2
100
AcDbCircle
 10
-62.23042889711107
 20
7.57980218937462
 30
0.0
 40
0.9118481501444551
100
AcDbArc
 50
295.374008678176
 51
64.62599132180786
  0
ARC
  5
224
102
{ACAD_REACTORS
330
253
330
254
102
}
330
71
100
AcDbEntity
  8
0
  6
Continuous
 62
     2
100
AcDbCircle
 10
-57.00535516450427
 20
6.84730016046061
 30
0.0
 40
2.227384008972739
100
AcDbArc
 50
288.448076118133
 51
301.9309089499593
  0
ARC
  5
225
102
{ACAD_REACTORS
330
253
330
254
102
}
330
71
100
AcDbEntity
  8
0
  6
Continuous
 62
     2
100
AcDbCircle
 10
-56.58718743084347
 20
5.59375438442342
 30
0.0
 40
0.9059297849849192
100
AcDbArc
 50
246.627722111871
 51
288.4480761181584
  0
ARC
  5
226
102
{ACAD_REACTORS
330
253
330
254
102
}
330
71
100
AcDbEntity
  8
0
  6
Continuous
 62
     2
100
AcDbCircle
 10
-56.74362746354549
 20
5.23176236571342
 30
0.0
 40
0.5115800601948096
100
AcDbArc
 50
208.5214732576952
 51
246.6277221118266
  0
ARC
  5
227
102
{ACAD_REACTORS
330
253
330
254
102
}
330
71
100
AcDbEntity
  8
0
  6
Continuous
 62
     2
100
AcDbCircle
 10
-56.58718743084347
 20
5.27991320568032
 30
0.0
 40
0.9059297849853228
100
AcDbArc
 50
71.55192388185348
 51
113.372277888129
  0
ARC
  5
228
102
{ACAD_REACTORS
330
253
330
254
102
}
330
71
100
AcDbEntity
  8
0
  6
Continuous
 62
     2
100
AcDbCircle
 10
-57.16322803959719
 20
2.12415284979602
 30
0.0
 40
4.852596863498068
100
AcDbArc
 50
74.02000874164739
 51
84.84185523037489
  0
CIRCLE
  5
229
102
{ACAD_REACTORS
330
257
330
258
102
}
330
71
100
AcDbEntity
  8
0
  6
Continuous
 62
     2
100
AcDbCircle
 10
-62.25424391178387
 20
7.57980218937462
 30
0.0
 40
0.4709789327785003
  0
CIRCLE
  5
22A
330
71
100
AcDbEntity
  8
1
  6
Continuous
 62
     2
100
AcDbCircle
 10
-56.79807417768419
 20
17.74142903313023
 30
0.0
 40
1.249999999999922
  0
CIRCLE
  5
22B
330
71
100
AcDbEntity
  8
1
  6
Continuous
 62
     2
100
AcDbCircle
 10
-56.79807417768419
 20
17.74142903313023
 30
0.0
 40
2.5
  0
TEXT
  5
22C
330
71
100
AcDbEntity
  8
1
 62
     7
100
AcDbText
 10
-14.16118134223299
 20
14.91642903313021
 30
0.0
 40
2.5
  1
/
 41
0.9
  7
CONVERTER_11
100
AcDbText
  0
TEXT
  5
22E
330
71
100
AcDbEntity
  8
1
 62
     7
100
AcDbText
 10
-12.00481684519099
 20
14.91642903313021
 30
0.0
 40
2.5
  1
01
 41
0.81
  7
CONVERTER_12
100
AcDbText
  0
TEXT
  5
22F
330
71
100
AcDbEntity
  8
1
 62
     3
100
AcDbText
 10
25.59166718082611
 20
14.91642903313021
 30
0.0
 40
2.5
  1
19.03.2018
 41
0.81
  7
CONVERTER_12
100
AcDbText
  0
MTEXT
  5
230
330
71
100
AcDbEntity
  8
1
 62
     2
100
AcDbMText
 10
25.59166718082611
 20
21.11642903313023
 30
0.0
 40
1.8
 41
0.0
 71
     1
 72
     1
  1
date
  7
CONVERTER_11
 73
     1
 44
1.32052821128451
  0
MTEXT
  5
231
330
71
100
AcDbEntity
  8
1
 62
     2
100
AcDbMText
 10
-4.23472906424678
 20
12.61642903313023
 30
0.0
 40
1.8
 41
0.0
 71
     1
 72
     1
  1
document-type
  7
CONVERTER_11
 73
     1
 44
1.20048019207683
  0
TEXT
  5
232
330
71
100
AcDbEntity
  8
1
 62
     3
100
AcDbText
 10
-4.23472906424678
 20
6.41642903313021
 30
0.0
 40
2.5
  1
TECDOC 2D_Productdrawing
 41
0.81
  7
CONVERTER_12
100
AcDbText
  0
MTEXT
  5
234
330
71
100
AcDbEntity
  8
1
 62
     2
100
AcDbMText
 10
-32.03472906424679
 20
21.11642903313032
 30
0.0
 40
1.8
 41
0.0
 71
     1
 72
     1
  1
document-No. / RI
  7
CONVERTER_13
 73
     1
 44
1.32052821128451
  0
TEXT
  5
235
330
71
100
AcDbEntity
  8
1
 62
     7
100
AcDbText
 10
-32.03472906424679
 20
14.91642903313021
 30
0.0
 40
2.5
  1
00326965
 41
0.81
  7
CONVERTER_12
100
AcDbText
  0
MTEXT
  5
237
330
71
100
AcDbEntity
  8
1
 62
     3
100
AcDbMText
 10
55.55087132166553
 20
14.91642903313041
 30
0.0
 40
2.5
 41
0.0
 71
     8
 72
     1
  1
1:1
  7
CONVERTER_14
 73
     1
 44
1.32052821128451
  0
MTEXT
  5
238
330
71
100
AcDbEntity
  8
1
 62
     2
100
AcDbMText
 10
52.19166718082593
 20
21.11642903313032
 30
0.0
 40
1.8
 41
0.0
 71
     1
 72
     1
  1
scale
  7
CONVERTER_11
 73
     1
 44
1.20048019207683
  0
MTEXT
  5
239
330
71
100
AcDbEntity
  8
1
 62
     2
100
AcDbMText
 10
-32.03472906424679
 20
12.61642903313032
 30
0.0
 40
1.8
 41
0.0
 71
     1
 72
     1
  1
ident.-No.
  7
CONVERTER_11
 73
     1
 44
1.20048019207683
  0
TEXT
  5
23A
330
71
100
AcDbEntity
  8
1
 62
     7
100
AcDbText
 10
-31.63472906424707
 20
6.41642903313021
 30
0.0
 40
2.5
  1
3040096
 41
0.81
  7
CONVERTER_12
100
AcDbText
  0
MTEXT
  5
23B
330
71
100
AcDbEntity
  8
1
 62
     2
100
AcDbMText
 10
-103.9727437892943
 20
9.36642903313023
 30
0.0
 40
2.0
 41
0.0
 71
     5
 72
     1
  1
General Information\P- Simplified representation\P- Document excluded from change process\P- Linear dimensions [mm]
  7
CONVERTER_11
 73
     1
 44
1.20048019207683
  0
MTEXT
  5
23C
330
71
100
AcDbEntity
  8
1
 62
     7
100
AcDbMText
 10
62.51007546250222
 20
71.61642903313222
 30
0.0
 40
3.5
 41
0.0
 71
     5
 72
     1
  1
C
  7
CONVERTER_11
 73
     1
 44
1.20048019207683
  0
MTEXT
  5
23D
330
71
100
AcDbEntity
  8
1
 62
     7
100
AcDbMText
 10
62.51007546250222
 20
174.1164290331303
 30
0.0
 40
3.5
 41
0.0
 71
     5
 72
     1
  1
A
  7
CONVERTER_11
 73
     1
 44
1.20048019207683
  0
MTEXT
  5
23E
330
71
100
AcDbEntity
  8
1
 62
     7
100
AcDbMText
 10
62.51007546250222
 20
121.6164290331322
 30
0.0
 40
3.5
 41
0.0
 71
     5
 72
     1
  1
B
  7
CONVERTER_11
 73
     1
 44
1.20048019207683
  0
MTEXT
  5
23F
330
71
100
AcDbEntity
  8
1
 62
     7
100
AcDbMText
 10
62.51007546250222
 20
19.11642903313032
 30
0.0
 40
3.5
 41
0.0
 71
     5
 72
     1
  1
D
  7
CONVERTER_11
 73
     1
 44
1.20048019207683
  0
MTEXT
  5
240
330
71
100
AcDbEntity
  8
1
 62
     7
100
AcDbMText
 10
-207.7399245374964
 20
-5.8835709668698
 30
0.0
 40
3.5
 41
0.0
 71
     5
 72
     1
  1
1
  7
CONVERTER_11
 73
     1
 44
1.20048019207683
  0
MTEXT
  5
241
330
71
100
AcDbEntity
  8
1
 62
     7
100
AcDbMText
 10
-158.4899245374968
 20
-5.8835709668698
 30
0.0
 40
3.5
 41
0.0
 71
     5
 72
     1
  1
2
  7
CONVERTER_11
 73
     1
 44
1.20048019207683
  0
MTEXT
  5
242
330
71
100
AcDbEntity
  8
1
 62
     7
100
AcDbMText
 10
-108.4899245374968
 20
-5.8835709668698
 30
0.0
 40
3.5
 41
0.0
 71
     5
 72
     1
  1
3
  7
CONVERTER_11
 73
     1
 44
1.20048019207683
  0
MTEXT
  5
243
330
71
100
AcDbEntity
  8
1
 62
     7
100
AcDbMText
 10
-58.48992453749688
 20
-5.8835709668698
 30
0.0
 40
3.5
 41
0.0
 71
     5
 72
     1
  1
4
  7
CONVERTER_11
 73
     1
 44
1.20048019207683
  0
MTEXT
  5
244
330
71
100
AcDbEntity
  8
1
 62
     7
100
AcDbMText
 10
-8.48992453749679
 20
-5.8835709668698
 30
0.0
 40
3.5
 41
0.0
 71
     5
 72
     1
  1
5
  7
CONVERTER_11
 73
     1
 44
1.20048019207683
  0
MTEXT
  5
245
330
71
100
AcDbEntity
  8
1
 62
     7
100
AcDbMText
 10
40.76007546250241
 20
-5.8835709668698
 30
0.0
 40
3.5
 41
0.0
 71
     5
 72
     1
  1
6
  7
CONVERTER_11
 73
     1
 44
1.20048019207683
  0
MTEXT
  5
246
330
71
100
AcDbEntity
  8
1
 62
     7
100
AcDbMText
 10
-229.4899245374959
 20
174.1164290331303
 30
0.0
 40
3.5
 41
0.0
 71
     5
 72
     1
  1
A
  7
CONVERTER_11
 73
     1
 44
1.20048019207683
  0
MTEXT
  5
247
330
71
100
AcDbEntity
  8
1
 62
     7
100
AcDbMText
 10
-229.4899245374959
 20
121.6164290331303
 30
0.0
 40
3.5
 41
0.0
 71
     5
 72
     1
  1
B
  7
CONVERTER_11
 73
     1
 44
1.20048019207683
  0
MTEXT
  5
248
330
71
100
AcDbEntity
  8
1
 62
     7
100
AcDbMText
 10
-229.4899245374959
 20
71.61642903313032
 30
0.0
 40
3.5
 41
0.0
 71
     5
 72
     1
  1
C
  7
CONVERTER_11
 73
     1
 44
1.20048019207683
  0
MTEXT
  5
249
330
71
100
AcDbEntity
  8
1
 62
     7
100
AcDbMText
 10
-229.4899245374959
 20
19.11642903313032
 30
0.0
 40
3.5
 41
0.0
 71
     5
 72
     1
  1
D
  7
CONVERTER_11
 73
     1
 44
1.20048019207683
  0
MTEXT
  5
24A
330
71
100
AcDbEntity
  8
1
 62
     3
100
AcDbMText
 10
-43.33472906424689
 20
17.74142903313032
 30
0.0
 40
2.5
 41
0.0
 71
     5
 72
     1
  1
DIN A4
  7
CONVERTER_11
 73
     1
 44
1.20048019207683
  0
MTEXT
  5
24B
330
71
100
AcDbEntity
  8
1
 62
     2
100
AcDbMText
 10
-32.13472906424687
 20
4.11642903313032
 30
0.0
 40
1.8
 41
0.0
 71
     1
 72
     1
  1
description
  7
CONVERTER_11
 73
     1
 44
1.20048019207683
  0
MTEXT
  5
24C
330
71
100
AcDbEntity
  8
1
 62
     7
100
AcDbMText
 10
13.43767319912871
 20
-0.13357096686946
 30
0.0
 40
3.0
 41
0.0
 71
     5
 72
     1
  1
D-STTB 2,5/2P
  7
CONVERTER_12
 73
     1
 44
1.20048019207683
  0
TEXT
  5
24D
330
71
100
AcDbEntity
  8
1
 62
     2
100
AcDbText
 10
-45.09942025443328
 20
-2.1335709668698
 30
0.0
 40
1.8
  1
1
 41
0.9
  7
CONVERTER_11
100
AcDbText
  0
TEXT
  5
24E
330
71
100
AcDbEntity
  8
1
 62
     2
100
AcDbText
 10
-59.88846409390479
 20
-2.18281962067169
 30
0.0
 40
1.8
  1
1
 41
0.9
  7
CONVERTER_11
100
AcDbText
  0
TEXT
  5
24F
330
71
100
AcDbEntity
  8
1
 62
     2
100
AcDbText
 10
-68.53472906424679
 20
-2.14258818186136
 30
0.0
 40
1.8
  1
page
 41
0.9
  7
CONVERTER_11
100
AcDbText
  0
TEXT
  5
250
330
71
100
AcDbEntity
  8
1
 62
     2
100
AcDbText
 10
-50.33472906424697
 20
-2.1425881818613
 30
0.0
 40
1.8
  1
of
 41
0.9
  7
CONVERTER_11
100
AcDbText
  0
MTEXT
  5
251
330
71
100
AcDbEntity
  8
1
 62
     3
100
AcDbMText
 10
-44.13174691263689
 20
183.4077371884291
 30
0.0
 40
1.8
 41
0.0
 71
     7
 72
     1
  3
Transfer or duplication of this document as well as the utilisation or\Pcommunication of its content are not permitted unless express consent\Pis granted. Violations give rise to claims for damages. All rights reserved\Pin case of patent, utility mo
  1
del or design patent registrations.
  7
CONVERTER_11
 73
     1
 44
0.99639855942377
  0
MTEXT
  5
252
330
71
100
AcDbEntity
  8
1
 62
     3
100
AcDbMText
 10
-226.984856751425
 20
183.4077371884291
 30
0.0
 40
1.8
 41
0.0
 71
     7
 72
     1
  3
Weitergabe sowie Vervielf\U+00e4ltigung dieses Dokuments, Verwertung und \PMitteilung seines Inhalts sind verboten, soweit nicht ausdr\U+00fccklich gestattet. \PZuwiderhandlungen verpflichten zu Schadenersatz. Alle Rechte f\U+00fcr den Fall\Pder Pat
  1
ent-, Gebrauchsmuster- oder Designeintragung vorbehalten.
  7
CONVERTER_11
 73
     1
 44
0.99639855942377
  0
HATCH
  5
253
330
71
100
AcDbEntity
  8
1
  6
Continuous
 62
     2
100
AcDbHatch
 10
0.0
 20
0.0
 30
0.0
210
0.0
220
0.0
230
1.0
  2
_USER
 70
     0
 71
     1
 91
        1
 92
        1
 93
       14
 72
     2
 10
-57.29349978832408
 20
5.436833795051911
 40
1.205656168390951
 50
164.9381082228765
 51
195.0618917770948
 73
     1
 72
     2
 10
-56.87437194486128
 20
5.549624157086726
 40
1.639695123939388
 50
195.0618917770896
 51
275.1581447696398
 73
     1
 72
     2
 10
-57.16322803959719
 20
8.749514740308314
 40
4.85259686349814
 50
275.1581447696251
 51
285.9799912583529
 73
     1
 72
     1
 10
-55.82730012247939
 20
4.084432434507505
 11
-55.82730012247939
 21
4.956949441310712
 72
     2
 10
-57.00535516450427
 20
6.847300160460605
 40
2.227384008972739
 50
58.0690910500407
 51
71.55192388186703
 73
     0
 72
     2
 10
-56.58718743084347
 20
5.59375438442342
 40
0.9059297849849192
 50
71.55192388184153
 51
113.372277888129
 73
     0
 72
     2
 10
-56.74362746354549
 20
5.231762365713422
 40
0.5115800601948096
 50
113.3722778881733
 51
151.4785267423048
 73
     0
 72
     2
 10
-56.36627020546519
 20
5.436833795051911
 40
0.9410597353332487
 50
151.4785267422941
 51
208.5214732577334
 73
     0
 72
     2
 10
-56.74362746354549
 20
5.641905224390911
 40
0.5115800601948807
 50
208.5214732576953
 51
246.6277221118002
 73
     0
 72
     2
 10
-56.58718743084347
 20
5.279913205680316
 40
0.9059297849853228
 50
246.627722111871
 51
288.4480761181465
 73
     0
 72
     2
 10
-57.00535516450427
 20
4.026367429643727
 40
2.227384008973478
 50
288.448076118133
 51
301.9309089499593
 73
     0
 72
     1
 10
-55.82730012247939
 20
5.916718148793621
 11
-55.82730012247939
 21
6.789235155596913
 72
     2
 10
-57.16322803959719
 20
2.124152849796019
 40
4.852596863498068
 50
74.02000874164739
 51
84.84185523037489
 73
     1
 72
     2
 10
-56.87437194486128
 20
5.32404343301701
 40
1.639695123940507
 50
84.84185523036211
 51
164.9381082228864
 73
     1
 97
       14
330
228
330
141
330
1F7
330
227
330
1F8
330
1F9
330
226
330
225
330
224
330
142
330
1FA
330
1FB
330
1FC
330
1FD
 75
     1
 76
     0
 52
45.0
 41
0.1
 77
     0
 78
     1
 53
45.0
 43
0.0
 44
0.0
 45
-0.0707106781186548
 46
0.0707106781186548
 79
     0
 98
        1
 10
0.0
 20
0.0
  0
HATCH
  5
254
330
71
100
AcDbEntity
  8
1
  6
Continuous
 62
     2
100
AcDbHatch
 10
0.0
 20
0.0
 30
0.0
210
0.0
220
0.0
230
1.0
  2
_USER
 70
     0
 71
     1
 91
        1
 92
        1
 93
       14
 72
     2
 10
-57.29349978832408
 20
5.436833795051911
 40
1.205656168390951
 50
164.9381082228765
 51
195.0618917770948
 73
     1
 72
     2
 10
-56.87437194486128
 20
5.549624157086726
 40
1.639695123939388
 50
195.0618917770896
 51
275.1581447696398
 73
     1
 72
     2
 10
-57.16322803959719
 20
8.749514740308314
 40
4.85259686349814
 50
275.1581447696251
 51
285.9799912583529
 73
     1
 72
     1
 10
-55.82730012247939
 20
4.084432434507505
 11
-55.82730012247939
 21
4.956949441310712
 72
     2
 10
-57.00535516450427
 20
6.847300160460605
 40
2.227384008972739
 50
58.0690910500407
 51
71.55192388186703
 73
     0
 72
     2
 10
-56.58718743084347
 20
5.59375438442342
 40
0.9059297849849192
 50
71.55192388184153
 51
113.372277888129
 73
     0
 72
     2
 10
-56.74362746354549
 20
5.231762365713422
 40
0.5115800601948096
 50
113.3722778881733
 51
151.4785267423048
 73
     0
 72
     2
 10
-56.36627020546519
 20
5.436833795051911
 40
0.9410597353332487
 50
151.4785267422941
 51
208.5214732577334
 73
     0
 72
     2
 10
-56.74362746354549
 20
5.641905224390911
 40
0.5115800601948807
 50
208.5214732576953
 51
246.6277221118002
 73
     0
 72
     2
 10
-56.58718743084347
 20
5.279913205680316
 40
0.9059297849853228
 50
246.627722111871
 51
288.4480761181465
 73
     0
 72
     2
 10
-57.00535516450427
 20
4.026367429643727
 40
2.227384008973478
 50
288.448076118133
 51
301.9309089499593
 73
     0
 72
     1
 10
-55.82730012247939
 20
5.916718148793621
 11
-55.82730012247939
 21
6.789235155596913
 72
     2
 10
-57.16322803959719
 20
2.124152849796019
 40
4.852596863498068
 50
74.02000874164739
 51
84.84185523037489
 73
     1
 72
     2
 10
-56.87437194486128
 20
5.32404343301701
 40
1.639695123940507
 50
84.84185523036211
 51
164.9381082228864
 73
     1
 97
       14
330
228
330
141
330
1F7
330
227
330
1F8
330
1F9
330
226
330
225
330
224
330
142
330
1FA
330
1FB
330
1FC
330
1FD
 75
     1
 76
     0
 52
45.0
 41
0.1
 77
     0
 78
     1
 53
45.0
 43
0.0
 44
0.0
 45
-0.0707106781186548
 46
0.0707106781186548
 79
     0
 98
        1
 10
0.0
 20
0.0
  0
HATCH
  5
255
330
71
100
AcDbEntity
  8
1
  6
Continuous
 62
     2
100
AcDbHatch
 10
0.0
 20
0.0
 30
0.0
210
0.0
220
0.0
230
1.0
  2
_USER
 70
     0
 71
     1
 91
        1
 92
        1
 93
       18
 72
     2
 10
-40.77167046560837
 20
5.32404343301701
 40
1.639695123940215
 50
90.0
 51
164.9381082228949
 73
     1
 72
     2
 10
-41.19079830906998
 20
5.436833795051911
 40
1.205656168392996
 50
164.9381082229027
 51
195.061891777096
 73
     1
 72
     2
 10
-40.77167046560837
 20
5.549624157086726
 40
1.639695123940442
 50
195.0618917771013
 51
275.1581447696765
 73
     1
 72
     2
 10
-41.06052656034419
 20
8.749514740308314
 40
4.852596863498825
 50
275.1581447696364
 51
285.9799912583386
 73
     1
 72
     1
 10
-39.72459864322747
 20
4.084432434506908
 11
-39.72459864322747
 21
4.956949441310229
 72
     2
 10
-40.90265368525138
 20
6.847300160460009
 40
2.227384008972747
 50
58.06909105006045
 51
71.55192388186651
 73
     0
 72
     2
 10
-40.48448595158948
 20
5.59375438442342
 40
0.9059297849852801
 50
71.55192388191827
 51
113.3722778881817
 73
     0
 72
     2
 10
-40.64092598429258
 20
5.231762365713422
 40
0.5115800601960279
 50
113.3722778881551
 51
151.4785267423138
 73
     0
 72
     2
 10
-40.26356872621119
 20
5.436833795051911
 40
0.9410597353348987
 50
151.4785267423307
 51
208.5214732576374
 73
     0
 72
     2
 10
-40.64092598429258
 20
5.641905224390911
 40
0.5115800601944166
 50
208.5214732575772
 51
250.662856780514
 73
     0
 72
     2
 10
-40.49425598618888
 20
5.223950244008023
 40
0.9545230068260944
 50
250.662856780568
 51
270.0
 73
     0
 72
     1
 10
-40.49425598618888
 20
6.178473250834117
 11
-39.39061668662077
 21
6.178473250834117
 72
     1
 10
-39.39061668662077
 20
6.178473250834117
 11
-39.39061668662077
 21
3.909929033146625
 72
     1
 10
-39.39061668662077
 20
3.909929033146625
 11
-38.19782398445307
 21
3.909929033146625
 72
     1
 10
-38.19782398445307
 20
3.909929033146625
 11
-38.19782398445307
 21
6.178473250834117
 72
     1
 10
-38.19782398445307
 20
6.178473250834117
 11
-37.38672494697968
 21
6.178473250834117
 72
     1
 10
-37.38672494697968
 20
6.178473250834117
 11
-37.38672494697968
 21
6.963738556957708
 72
     1
 10
-37.38672494697968
 20
6.963738556957708
 11
-40.77167046560837
 21
6.963738556957225
 97
       18
330
1A7
330
1A6
330
1A5
330
1A4
330
1A9
330
143
330
221
330
202
330
220
330
203
330
21F
330
21E
330
144
330
21D
330
21C
330
204
330
205
330
1A8
 75
     1
 76
     0
 52
45.0
 41
0.1
 77
     0
 78
     1
 53
45.0
 43
0.0
 44
0.0
 45
-0.0707106781186548
 46
0.0707106781186548
 79
     0
 98
        1
 10
0.0
 20
0.0
  0
HATCH
  5
256
330
71
100
AcDbEntity
  8
1
  6
Continuous
 62
     2
100
AcDbHatch
 10
0.0
 20
0.0
 30
0.0
210
0.0
220
0.0
230
1.0
  2
_USER
 70
     0
 71
     1
 91
        1
 92
        1
 93
       18
 72
     2
 10
-40.77167046560837
 20
5.32404343301701
 40
1.639695123940215
 50
90.0
 51
164.9381082228949
 73
     1
 72
     2
 10
-41.19079830906998
 20
5.436833795051911
 40
1.205656168392996
 50
164.9381082229027
 51
195.061891777096
 73
     1
 72
     2
 10
-40.77167046560837
 20
5.549624157086726
 40
1.639695123940442
 50
195.0618917771013
 51
275.1581447696765
 73
     1
 72
     2
 10
-41.06052656034419
 20
8.749514740308314
 40
4.852596863498825
 50
275.1581447696364
 51
285.9799912583386
 73
     1
 72
     1
 10
-39.72459864322747
 20
4.084432434506908
 11
-39.72459864322747
 21
4.956949441310229
 72
     2
 10
-40.90265368525138
 20
6.847300160460009
 40
2.227384008972747
 50
58.06909105006045
 51
71.55192388186651
 73
     0
 72
     2
 10
-40.48448595158948
 20
5.59375438442342
 40
0.9059297849852801
 50
71.55192388191827
 51
113.3722778881817
 73
     0
 72
     2
 10
-40.64092598429258
 20
5.231762365713422
 40
0.5115800601960279
 50
113.3722778881551
 51
151.4785267423138
 73
     0
 72
     2
 10
-40.26356872621119
 20
5.436833795051911
 40
0.9410597353348987
 50
151.4785267423307
 51
208.5214732576374
 73
     0
 72
     2
 10
-40.64092598429258
 20
5.641905224390911
 40
0.5115800601944166
 50
208.5214732575772
 51
250.662856780514
 73
     0
 72
     2
 10
-40.49425598618888
 20
5.223950244008023
 40
0.9545230068260944
 50
250.662856780568
 51
270.0
 73
     0
 72
     1
 10
-40.49425598618888
 20
6.178473250834117
 11
-39.39061668662077
 21
6.178473250834117
 72
     1
 10
-39.39061668662077
 20
6.178473250834117
 11
-39.39061668662077
 21
3.909929033146625
 72
     1
 10
-39.39061668662077
 20
3.909929033146625
 11
-38.19782398445307
 21
3.909929033146625
 72
     1
 10
-38.19782398445307
 20
3.909929033146625
 11
-38.19782398445307
 21
6.178473250834117
 72
     1
 10
-38.19782398445307
 20
6.178473250834117
 11
-37.38672494697968
 21
6.178473250834117
 72
     1
 10
-37.38672494697968
 20
6.178473250834117
 11
-37.38672494697968
 21
6.963738556957708
 72
     1
 10
-37.38672494697968
 20
6.963738556957708
 11
-40.77167046560837
 21
6.963738556957225
 97
       18
330
1A7
330
1A6
330
1A5
330
1A4
330
1A9
330
143
330
221
330
202
330
220
330
203
330
21F
330
21E
330
144
330
21D
330
21C
330
204
330
205
330
1A8
 75
     1
 76
     0
 52
45.0
 41
0.1
 77
     0
 78
     1
 53
45.0
 43
0.0
 44
0.0
 45
-0.0707106781186548
 46
0.0707106781186548
 79
     0
 98
        1
 10
0.0
 20
0.0
  0
HATCH
  5
257
330
71
100
AcDbEntity
  8
1
  6
Continuous
 62
     2
100
AcDbHatch
 10
0.0
 20
0.0
 30
0.0
210
0.0
220
0.0
230
1.0
  2
_USER
 70
     0
 71
     1
 91
        4
 92
        1
 93
        8
 72
     2
 10
-64.87382956230138
 20
9.898684417730124
 40
0.4242446153837971
 50
90.0
 51
180.0
 73
     1
 72
     1
 10
-65.29807417768419
 20
9.898684417730124
 11
-65.29807417768419
 21
4.334173648529912
 72
     2
 10
-64.87382956230138
 20
4.334173648529912
 40
0.4242446153828041
 50
180.0
 51
270.0
 73
     1
 72
     1
 10
-64.87382956230138
 20
3.909929033146625
 11
-59.40051747158458
 21
3.909929033146625
 72
     2
 10
-59.40051747158458
 20
4.334173648529912
 40
0.4242446153832873
 50
270.0
 51
360.0
 73
     1
 72
     1
 10
-58.97627285620069
 20
4.334173648529912
 11
-58.97627285620069
 21
9.898684417730124
 72
     2
 10
-59.40051747158458
 20
9.898684417730124
 40
0.4242446153838912
 50
0.0
 51
90.0
 73
     1
 72
     1
 10
-59.40051747158458
 20
10.32292903311392
 11
-64.87382956230138
 21
10.32292903311392
 97
        8
330
215
330
172
330
214
330
173
330
20B
330
170
330
216
330
171
 92
       16
 93
        1
 72
     2
 10
-62.25424391178387
 20
7.579802189374618
 40
0.4709789327785003
 50
0.0
 51
360.0
 73
     1
 97
        1
330
229
 92
       16
 93
        8
 72
     2
 10
-62.23042889711107
 20
7.579802189374618
 40
0.9118481501444551
 50
295.374008678176
 51
424.6259913218079
 73
     1
 72
     2
 10
-61.70438619902319
 20
8.688943789342432
 40
0.315716923076792
 50
115.374008678353
 51
180.0
 73
     0
 72
     1
 10
-62.02010312209998
 20
8.688943789342432
 11
-62.02010312209998
 21
9.294479077849218
 72
     2
 10
-61.70438619902319
 20
9.294479077849218
 40
0.3157169230760711
 50
180.0
 51
269.8110329574541
 73
     0
 72
     2
 10
-61.69877006371317
 20
7.591644130280116
 40
2.018561131933266
 50
269.8110329575858
 51
450.1889670424142
 73
     0
 72
     2
 10
-61.70438619902319
 20
5.888809182711128
 40
0.315716923076792
 50
90.18896704254585
 51
180.0
 73
     0
 72
     1
 10
-62.02010312209998
 20
5.888809182711128
 11
-62.02010312209998
 21
6.470660589406208
 72
     2
 10
-61.70438619902319
 20
6.470660589406208
 40
0.3157169230765366
 50
180.0
 51
244.625991321647
 73
     0
 97
        8
330
223
330
1FF
330
1AB
330
222
330
200
330
201
330
1AA
330
1FE
 92
       16
 93
       12
 72
     1
 10
-64.2799348855549
 20
4.622484588703514
 11
-62.80410162454527
 21
4.622484588703514
 72
     2
 10
-62.80410162454527
 20
4.938201511780221
 40
0.3157169230767067
 50
270.0
 51
360.0
 73
     1
 72
     1
 10
-62.48838470146868
 20
4.938201511780221
 11
-62.48838470146868
 21
6.468972443311827
 72
     2
 10
-62.80410162454527
 20
6.468972443311827
 40
0.3157169230765859
 50
0.0
 51
64.80558935146027
 73
     1
 72
     2
 10
-62.28151717697028
 20
7.579802189374618
 40
0.9118975235576147
 50
115.1944106485122
 51
244.8055893514718
 73
     0
 72
     2
 10
-62.80410162454527
 20
8.690631935436812
 40
0.3157169230761203
 50
295.1944106485397
 51
360.0
 73
     1
 72
     1
 10
-62.48838470146868
 20
8.690631935436812
 11
-62.48838470146868
 21
9.294656554497323
 72
     2
 10
-62.80410162454527
 20
9.294656554497323
 40
0.3157169230765859
 50
0.0
 51
90.0
 73
     1
 72
     1
 10
-62.80410162454527
 20
9.610373477573518
 11
-64.2799348855549
 21
9.610373477573518
 72
     2
 10
-64.2799348855549
 20
9.294656554497323
 40
0.3157169230761951
 50
90.0
 51
180.0
 73
     1
 72
     1
 10
-64.59565180863058
 20
9.294656554497323
 11
-64.59565180863058
 21
4.938201511780221
 72
     2
 10
-64.2799348855549
 20
4.938201511780221
 40
0.3157169230756836
 50
180.0
 51
270.0
 73
     1
 97
       12
330
177
330
208
330
176
330
219
330
175
330
218
330
209
330
20A
330
174
330
217
330
16F
330
21A
 75
     1
 76
     0
 52
45.0
 41
0.1
 77
     0
 78
     1
 53
45.0
 43
0.0
 44
0.0
 45
-0.0707106781186548
 46
0.0707106781186548
 79
     0
 98
        1
 10
0.0
 20
0.0
  0
HATCH
  5
258
330
71
100
AcDbEntity
  8
1
  6
Continuous
 62
     2
100
AcDbHatch
 10
0.0
 20
0.0
 30
0.0
210
0.0
220
0.0
230
1.0
  2
_USER
 70
     0
 71
     1
 91
        4
 92
        1
 93
        8
 72
     2
 10
-64.87382956230138
 20
9.898684417730124
 40
0.4242446153837971
 50
90.0
 51
180.0
 73
     1
 72
     1
 10
-65.29807417768419
 20
9.898684417730124
 11
-65.29807417768419
 21
4.334173648529912
 72
     2
 10
-64.87382956230138
 20
4.334173648529912
 40
0.4242446153828041
 50
180.0
 51
270.0
 73
     1
 72
     1
 10
-64.87382956230138
 20
3.909929033146625
 11
-59.40051747158458
 21
3.909929033146625
 72
     2
 10
-59.40051747158458
 20
4.334173648529912
 40
0.4242446153832873
 50
270.0
 51
360.0
 73
     1
 72
     1
 10
-58.97627285620069
 20
4.334173648529912
 11
-58.97627285620069
 21
9.898684417730124
 72
     2
 10
-59.40051747158458
 20
9.898684417730124
 40
0.4242446153838912
 50
0.0
 51
90.0
 73
     1
 72
     1
 10
-59.40051747158458
 20
10.32292903311392
 11
-64.87382956230138
 21
10.32292903311392
 97
        8
330
215
330
172
330
214
330
173
330
20B
330
170
330
216
330
171
 92
       16
 93
        1
 72
     2
 10
-62.25424391178387
 20
7.579802189374618
 40
0.4709789327785003
 50
0.0
 51
360.0
 73
     1
 97
        1
330
229
 92
       16
 93
        8
 72
     2
 10
-62.23042889711107
 20
7.579802189374618
 40
0.9118481501444551
 50
295.374008678176
 51
424.6259913218079
 73
     1
 72
     2
 10
-61.70438619902319
 20
8.688943789342432
 40
0.315716923076792
 50
115.374008678353
 51
180.0
 73
     0
 72
     1
 10
-62.02010312209998
 20
8.688943789342432
 11
-62.02010312209998
 21
9.294479077849218
 72
     2
 10
-61.70438619902319
 20
9.294479077849218
 40
0.3157169230760711
 50
180.0
 51
269.8110329574541
 73
     0
 72
     2
 10
-61.69877006371317
 20
7.591644130280116
 40
2.018561131933266
 50
269.8110329575858
 51
450.1889670424142
 73
     0
 72
     2
 10
-61.70438619902319
 20
5.888809182711128
 40
0.315716923076792
 50
90.18896704254585
 51
180.0
 73
     0
 72
     1
 10
-62.02010312209998
 20
5.888809182711128
 11
-62.02010312209998
 21
6.470660589406208
 72
     2
 10
-61.70438619902319
 20
6.470660589406208
 40
0.3157169230765366
 50
180.0
 51
244.625991321647
 73
     0
 97
        8
330
223
330
1FF
330
1AB
330
222
330
200
330
201
330
1AA
330
1FE
 92
       16
 93
       12
 72
     1
 10
-64.2799348855549
 20
4.622484588703514
 11
-62.80410162454527
 21
4.622484588703514
 72
     2
 10
-62.80410162454527
 20
4.938201511780221
 40
0.3157169230767067
 50
270.0
 51
360.0
 73
     1
 72
     1
 10
-62.48838470146868
 20
4.938201511780221
 11
-62.48838470146868
 21
6.468972443311827
 72
     2
 10
-62.80410162454527
 20
6.468972443311827
 40
0.3157169230765859
 50
0.0
 51
64.80558935146027
 73
     1
 72
     2
 10
-62.28151717697028
 20
7.579802189374618
 40
0.9118975235576147
 50
115.1944106485122
 51
244.8055893514718
 73
     0
 72
     2
 10
-62.80410162454527
 20
8.690631935436812
 40
0.3157169230761203
 50
295.1944106485397
 51
360.0
 73
     1
 72
     1
 10
-62.48838470146868
 20
8.690631935436812
 11
-62.48838470146868
 21
9.294656554497323
 72
     2
 10
-62.80410162454527
 20
9.294656554497323
 40
0.3157169230765859
 50
0.0
 51
90.0
 73
     1
 72
     1
 10
-62.80410162454527
 20
9.610373477573518
 11
-64.2799348855549
 21
9.610373477573518
 72
     2
 10
-64.2799348855549
 20
9.294656554497323
 40
0.3157169230761951
 50
90.0
 51
180.0
 73
     1
 72
     1
 10
-64.59565180863058
 20
9.294656554497323
 11
-64.59565180863058
 21
4.938201511780221
 72
     2
 10
-64.2799348855549
 20
4.938201511780221
 40
0.3157169230756836
 50
180.0
 51
270.0
 73
     1
 97
       12
330
177
330
208
330
176
330
219
330
175
330
218
330
209
330
20A
330
174
330
217
330
16F
330
21A
 75
     1
 76
     0
 52
45.0
 41
0.1
 77
     0
 78
     1
 53
45.0
 43
0.0
 44
0.0
 45
-0.0707106781186548
 46
0.0707106781186548
 79
     0
 98
        1
 10
0.0
 20
0.0
  0
HATCH
  5
259
330
71
100
AcDbEntity
  8
1
  6
Continuous
 62
     2
100
AcDbHatch
 10
0.0
 20
0.0
 30
0.0
210
0.0
220
0.0
230
1.0
  2
_USER
 70
     0
 71
     1
 91
        2
 92
        1
 93
       12
 72
     2
 10
-50.19866555831209
 20
8.79602427122623
 40
1.526904761905881
 50
90.0
 51
270.0
 73
     1
 72
     1
 10
-50.19866555831209
 20
7.269119509320916
 11
-47.04834583453109
 21
7.269119509320916
 72
     1
 10
-47.04834583453109
 20
7.269119509320916
 11
-47.04834583453109
 21
7.967133114763414
 72
     1
 10
-47.04834583453109
 20
7.967133114763414
 11
-48.38427366095877
 21
7.967133114763414
 72
     1
 10
-48.38427366095877
 20
7.967133114763414
 11
-48.38427366095877
 21
8.447017468505123
 72
     1
 10
-48.38427366095877
 20
8.447017468505123
 11
-47.04834583453109
 21
8.447017468505123
 72
     1
 10
-47.04834583453109
 20
8.447017468505123
 11
-47.04834583453109
 21
9.145031073947422
 72
     1
 10
-47.04834583453109
 20
9.145031073947422
 11
-48.38427366095877
 21
9.145031073947422
 72
     1
 10
-48.38427366095877
 20
9.145031073947422
 11
-48.38427366095877
 21
9.624915427689132
 72
     1
 10
-48.38427366095877
 20
9.624915427689132
 11
-47.04834583453109
 21
9.624915427689132
 72
     1
 10
-47.04834583453109
 20
9.624915427689132
 11
-47.04834583453109
 21
10.32292903313211
 72
     1
 10
-47.04834583453109
 20
10.32292903313211
 11
-50.19866555831209
 21
10.32292903313211
 97
       12
330
166
330
160
330
187
330
186
330
185
330
184
330
161
330
162
330
163
330
164
330
206
330
165
 92
       16
 93
        4
 72
     2
 10
-49.78265351180059
 20
8.79602427122623
 40
0.7717997786796724
 50
141.8795802028404
 51
218.1204197971562
 73
     1
 72
     2
 10
-49.98239354814689
 20
8.639293093105806
 40
0.5179085730134372
 50
218.1204197971511
 51
321.8795802028566
 73
     1
 72
     2
 10
-50.18213358449307
 20
8.79602427122623
 40
0.7717997786796373
 50
321.8795802028437
 51
398.1204197971596
 73
     1
 72
     2
 10
-49.98239354814689
 20
8.95275544934671
 40
0.5179085730135266
 50
38.12041979714334
 51
141.8795802028489
 73
     1
 97
        4
330
213
330
212
330
20D
330
20C
 75
     1
 76
     0
 52
45.0
 41
0.1
 77
     0
 78
     1
 53
45.0
 43
0.0
 44
0.0
 45
-0.0707106781186548
 46
0.0707106781186548
 79
     0
 98
        1
 10
0.0
 20
0.0
  0
HATCH
  5
25A
330
71
100
AcDbEntity
  8
1
  6
Continuous
 62
     2
100
AcDbHatch
 10
0.0
 20
0.0
 30
0.0
210
0.0
220
0.0
230
1.0
  2
_USER
 70
     0
 71
     1
 91
        2
 92
        1
 93
       12
 72
     2
 10
-50.19866555831209
 20
8.79602427122623
 40
1.526904761905881
 50
90.0
 51
270.0
 73
     1
 72
     1
 10
-50.19866555831209
 20
7.269119509320916
 11
-47.04834583453109
 21
7.269119509320916
 72
     1
 10
-47.04834583453109
 20
7.269119509320916
 11
-47.04834583453109
 21
7.967133114763414
 72
     1
 10
-47.04834583453109
 20
7.967133114763414
 11
-48.38427366095877
 21
7.967133114763414
 72
     1
 10
-48.38427366095877
 20
7.967133114763414
 11
-48.38427366095877
 21
8.447017468505123
 72
     1
 10
-48.38427366095877
 20
8.447017468505123
 11
-47.04834583453109
 21
8.447017468505123
 72
     1
 10
-47.04834583453109
 20
8.447017468505123
 11
-47.04834583453109
 21
9.145031073947422
 72
     1
 10
-47.04834583453109
 20
9.145031073947422
 11
-48.38427366095877
 21
9.145031073947422
 72
     1
 10
-48.38427366095877
 20
9.145031073947422
 11
-48.38427366095877
 21
9.624915427689132
 72
     1
 10
-48.38427366095877
 20
9.624915427689132
 11
-47.04834583453109
 21
9.624915427689132
 72
     1
 10
-47.04834583453109
 20
9.624915427689132
 11
-47.04834583453109
 21
10.32292903313211
 72
     1
 10
-47.04834583453109
 20
10.32292903313211
 11
-50.19866555831209
 21
10.32292903313211
 97
       12
330
166
330
160
330
187
330
186
330
185
330
184
330
161
330
162
330
163
330
164
330
206
330
165
 92
       16
 93
        4
 72
     2
 10
-49.78265351180059
 20
8.79602427122623
 40
0.7717997786796724
 50
141.8795802028404
 51
218.1204197971562
 73
     1
 72
     2
 10
-49.98239354814689
 20
8.639293093105806
 40
0.5179085730134372
 50
218.1204197971511
 51
321.8795802028566
 73
     1
 72
     2
 10
-50.18213358449307
 20
8.79602427122623
 40
0.7717997786796373
 50
321.8795802028437
 51
398.1204197971596
 73
     1
 72
     2
 10
-49.98239354814689
 20
8.95275544934671
 40
0.5179085730135266
 50
38.12041979714334
 51
141.8795802028489
 73
     1
 97
        4
330
213
330
212
330
20D
330
20C
 75
     1
 76
     0
 52
45.0
 41
0.1
 77
     0
 78
     1
 53
45.0
 43
0.0
 44
0.0
 45
-0.0707106781186548
 46
0.0707106781186548
 79
     0
 98
        1
 10
0.0
 20
0.0
  0
HATCH
  5
25B
330
71
100
AcDbEntity
  8
1
  6
Continuous
 62
     2
100
AcDbHatch
 10
0.0
 20
0.0
 30
0.0
210
0.0
220
0.0
230
1.0
  2
_USER
 70
     0
 71
     1
 91
        2
 92
        1
 93
        4
 72
     2
 10
-54.22428092077368
 20
5.436833795051911
 40
1.45803408365149
 50
117.5481481756624
 51
242.4518518243375
 73
     1
 72
     2
 10
-53.94334102894038
 20
5.975408805355215
 40
2.065479772208508
 50
242.4518518243402
 51
297.5481481756869
 73
     1
 72
     2
 10
-53.66240113710708
 20
5.436833795051911
 40
1.458034083651999
 50
297.5481481757009
 51
422.4518518242992
 73
     1
 72
     2
 10
-53.94334102894038
 20
4.898258784749118
 40
2.065479772208564
 50
62.45185182430653
 51
117.5481481756664
 73
     1
 97
        4
330
211
330
20E
330
210
330
20F
 92
       16
 93
        4
 72
     2
 10
-53.94334102894038
 20
5.59356497317242
 40
0.5179085730133054
 50
38.12041979714655
 51
141.8795802028588
 73
     1
 72
     2
 10
-53.74360099259428
 20
5.436833795051911
 40
0.7717997786794633
 50
141.8795802028363
 51
218.1204197971687
 73
     1
 72
     2
 10
-53.94334102894038
 20
5.280102616931913
 40
0.5179085730137354
 50
218.1204197971931
 51
321.8795802028015
 73
     1
 72
     2
 10
-54.14308106528679
 20
5.436833795051911
 40
0.7717997786797003
 50
321.879580202842
 51
398.120419797153
 73
     1
 97
        4
330
1F4
330
1F5
330
1F6
330
1F3
 75
     1
 76
     0
 52
45.0
 41
0.1
 77
     0
 78
     1
 53
45.0
 43
0.0
 44
0.0
 45
-0.0707106781186548
 46
0.0707106781186548
 79
     0
 98
        1
 10
0.0
 20
0.0
  0
HATCH
  5
25C
330
71
100
AcDbEntity
  8
1
  6
Continuous
 62
     2
100
AcDbHatch
 10
0.0
 20
0.0
 30
0.0
210
0.0
220
0.0
230
1.0
  2
_USER
 70
     0
 71
     1
 91
        2
 92
        1
 93
        4
 72
     2
 10
-54.22428092077368
 20
5.436833795051911
 40
1.45803408365149
 50
117.5481481756624
 51
242.4518518243375
 73
     1
 72
     2
 10
-53.94334102894038
 20
5.975408805355215
 40
2.065479772208508
 50
242.4518518243402
 51
297.5481481756869
 73
     1
 72
     2
 10
-53.66240113710708
 20
5.436833795051911
 40
1.458034083651999
 50
297.5481481757009
 51
422.4518518242992
 73
     1
 72
     2
 10
-53.94334102894038
 20
4.898258784749118
 40
2.065479772208564
 50
62.45185182430653
 51
117.5481481756664
 73
     1
 97
        4
330
211
330
20E
330
210
330
20F
 92
       16
 93
        4
 72
     2
 10
-53.94334102894038
 20
5.59356497317242
 40
0.5179085730133054
 50
38.12041979714655
 51
141.8795802028588
 73
     1
 72
     2
 10
-53.74360099259428
 20
5.436833795051911
 40
0.7717997786794633
 50
141.8795802028363
 51
218.1204197971687
 73
     1
 72
     2
 10
-53.94334102894038
 20
5.280102616931913
 40
0.5179085730137354
 50
218.1204197971931
 51
321.8795802028015
 73
     1
 72
     2
 10
-54.14308106528679
 20
5.436833795051911
 40
0.7717997786797003
 50
321.879580202842
 51
398.120419797153
 73
     1
 97
        4
330
1F4
330
1F5
330
1F6
330
1F3
 75
     1
 76
     0
 52
45.0
 41
0.1
 77
     0
 78
     1
 53
45.0
 43
0.0
 44
0.0
 45
-0.0707106781186548
 46
0.0707106781186548
 79
     0
 98
        1
 10
0.0
 20
0.0
  0
HATCH
  5
25D
330
71
100
AcDbEntity
  8
1
  6
Continuous
 62
     2
100
AcDbHatch
 10
0.0
 20
0.0
 30
0.0
210
0.0
220
0.0
230
1.0
  2
_USER
 70
     0
 71
     1
 91
        2
 92
        1
 93
        6
 72
     1
 10
-58.49915577533389
 20
10.32292903313211
 11
-58.49915577533389
 21
7.269119509320916
 72
     1
 10
-58.49915577533389
 20
7.269119509320916
 11
-57.25865136507977
 21
7.269119509320916
 72
     1
 10
-57.25865136507977
 20
7.269119509320916
 11
-57.25865136507977
 21
8.212197750464725
 72
     1
 10
-57.25865136507977
 20
8.212197750464725
 11
-56.49988377729949
 21
8.212197750464725
 72
     2
 10
-56.49988377729949
 20
9.267563391798433
 40
1.055365641333708
 50
270.0
 51
450.0
 73
     1
 72
     1
 10
-56.49988377729949
 20
10.32292903313211
 11
-58.49915577533389
 21
10.32292903313211
 97
        6
330
21B
330
178
330
16E
330
16D
330
17A
330
179
 92
       16
 93
        4
 72
     1
 10
-56.94135630353787
 20
9.659823187692012
 11
-57.25865136507977
 21
9.659823187692012
 72
     1
 10
-57.25865136507977
 20
9.659823187692012
 11
-57.25865136507977
 21
8.954095538349804
 72
     1
 10
-57.25865136507977
 20
8.954095538349804
 11
-56.94135630353787
 21
8.954095538349804
 72
     2
 10
-56.94135630353787
 20
9.306959363020923
 40
0.3528638246711182
 50
270.0
 51
450.0
 73
     1
 97
        4
330
17B
330
16C
330
17C
330
207
 75
     1
 76
     0
 52
45.0
 41
0.1
 77
     0
 78
     1
 53
45.0
 43
0.0
 44
0.0
 45
-0.0707106781186548
 46
0.0707106781186548
 79
     0
 98
        1
 10
0.0
 20
0.0
  0
HATCH
  5
25E
330
71
100
AcDbEntity
  8
1
  6
Continuous
 62
     2
100
AcDbHatch
 10
0.0
 20
0.0
 30
0.0
210
0.0
220
0.0
230
1.0
  2
_USER
 70
     0
 71
     1
 91
        2
 92
        1
 93
        6
 72
     1
 10
-58.49915577533389
 20
10.32292903313211
 11
-58.49915577533389
 21
7.269119509320916
 72
     1
 10
-58.49915577533389
 20
7.269119509320916
 11
-57.25865136507977
 21
7.269119509320916
 72
     1
 10
-57.25865136507977
 20
7.269119509320916
 11
-57.25865136507977
 21
8.212197750464725
 72
     1
 10
-57.25865136507977
 20
8.212197750464725
 11
-56.49988377729949
 21
8.212197750464725
 72
     2
 10
-56.49988377729949
 20
9.267563391798433
 40
1.055365641333708
 50
270.0
 51
450.0
 73
     1
 72
     1
 10
-56.49988377729949
 20
10.32292903313211
 11
-58.49915577533389
 21
10.32292903313211
 97
        6
330
21B
330
178
330
16E
330
16D
330
17A
330
179
 92
       16
 93
        4
 72
     1
 10
-56.94135630353787
 20
9.659823187692012
 11
-57.25865136507977
 21
9.659823187692012
 72
     1
 10
-57.25865136507977
 20
9.659823187692012
 11
-57.25865136507977
 21
8.954095538349804
 72
     1
 10
-57.25865136507977
 20
8.954095538349804
 11
-56.94135630353787
 21
8.954095538349804
 72
     2
 10
-56.94135630353787
 20
9.306959363020923
 40
0.3528638246711182
 50
270.0
 51
450.0
 73
     1
 97
        4
330
17B
330
16C
330
17C
330
207
 75
     1
 76
     0
 52
45.0
 41
0.1
 77
     0
 78
     1
 53
45.0
 43
0.0
 44
0.0
 45
-0.0707106781186548
 46
0.0707106781186548
 79
     0
 98
        1
 10
0.0
 20
0.0
  0
HATCH
  5
25F
330
71
100
AcDbEntity
  8
1
  6
Continuous
 62
     2
100
AcDbHatch
 10
0.0
 20
0.0
 30
0.0
210
0.0
220
0.0
230
1.0
  2
_USER
 70
     0
 71
     1
 91
        1
 92
        1
 93
       12
 72
     1
 10
-38.88487258090069
 20
10.32292903313211
 11
-37.48214836315347
 21
10.32292903313211
 72
     1
 10
-37.48214836315347
 20
10.32292903313211
 11
-38.78467799391999
 21
8.849978503095912
 72
     1
 10
-38.78467799391999
 20
8.849978503095912
 11
-37.38672494697968
 21
7.269119509320916
 72
     1
 10
-37.38672494697968
 20
7.269119509320916
 11
-38.78944916472798
 21
7.269119509320916
 72
     1
 10
-38.78944916472798
 20
7.269119509320916
 11
-39.48604010279348
 21
8.056851294614631
 72
     1
 10
-39.48604010279348
 20
8.056851294614631
 11
-40.18263104085918
 21
7.269119509320916
 72
     1
 10
-40.18263104085918
 20
7.269119509320916
 11
-41.58535525860739
 21
7.269119509320916
 72
     1
 10
-41.58535525860739
 20
7.269119509320916
 11
-40.18740221166709
 21
8.849978503095912
 72
     1
 10
-40.18740221166709
 20
8.849978503095912
 11
-41.48993184243457
 21
10.32292903313211
 72
     1
 10
-41.48993184243457
 20
10.32292903313211
 11
-40.08720762468528
 21
10.32292903313211
 72
     1
 10
-40.08720762468528
 20
10.32292903313211
 11
-39.48604010279348
 21
9.643105711576624
 72
     1
 10
-39.48604010279348
 20
9.643105711576624
 11
-38.88487258090069
 21
10.32292903313211
 97
       12
330
147
330
1A0
330
19F
330
19E
330
19D
330
148
330
149
330
145
330
146
330
1A3
330
1A2
330
1A1
 75
     1
 76
     0
 52
45.0
 41
0.1
 77
     0
 78
     1
 53
45.0
 43
0.0
 44
0.0
 45
-0.0707106781186548
 46
0.0707106781186548
 79
     0
 98
        1
 10
0.0
 20
0.0
  0
HATCH
  5
260
330
71
100
AcDbEntity
  8
1
  6
Continuous
 62
     2
100
AcDbHatch
 10
0.0
 20
0.0
 30
0.0
210
0.0
220
0.0
230
1.0
  2
_USER
 70
     0
 71
     1
 91
        1
 92
        1
 93
       12
 72
     1
 10
-38.88487258090069
 20
10.32292903313211
 11
-37.48214836315347
 21
10.32292903313211
 72
     1
 10
-37.48214836315347
 20
10.32292903313211
 11
-38.78467799391999
 21
8.849978503095912
 72
     1
 10
-38.78467799391999
 20
8.849978503095912
 11
-37.38672494697968
 21
7.269119509320916
 72
     1
 10
-37.38672494697968
 20
7.269119509320916
 11
-38.78944916472798
 21
7.269119509320916
 72
     1
 10
-38.78944916472798
 20
7.269119509320916
 11
-39.48604010279348
 21
8.056851294614631
 72
     1
 10
-39.48604010279348
 20
8.056851294614631
 11
-40.18263104085918
 21
7.269119509320916
 72
     1
 10
-40.18263104085918
 20
7.269119509320916
 11
-41.58535525860739
 21
7.269119509320916
 72
     1
 10
-41.58535525860739
 20
7.269119509320916
 11
-40.18740221166709
 21
8.849978503095912
 72
     1
 10
-40.18740221166709
 20
8.849978503095912
 11
-41.48993184243457
 21
10.32292903313211
 72
     1
 10
-41.48993184243457
 20
10.32292903313211
 11
-40.08720762468528
 21
10.32292903313211
 72
     1
 10
-40.08720762468528
 20
10.32292903313211
 11
-39.48604010279348
 21
9.643105711576624
 72
     1
 10
-39.48604010279348
 20
9.643105711576624
 11
-38.88487258090069
 21
10.32292903313211
 97
       12
330
147
330
1A0
330
19F
330
19E
330
19D
330
148
330
149
330
145
330
146
330
1A3
330
1A2
330
1A1
 75
     1
 76
     0
 52
45.0
 41
0.1
 77
     0
 78
     1
 53
45.0
 43
0.0
 44
0.0
 45
-0.0707106781186548
 46
0.0707106781186548
 79
     0
 98
        1
 10
0.0
 20
0.0
  0
HATCH
  5
261
330
71
100
AcDbEntity
  8
1
  6
Continuous
 62
     2
100
AcDbHatch
 10
0.0
 20
0.0
 30
0.0
210
0.0
220
0.0
230
1.0
  2
_USER
 70
     0
 71
     1
 91
        1
 92
        1
 93
        4
 72
     1
 10
-41.70463452882427
 20
10.32292903313211
 11
-41.70463452882427
 21
7.269119509320916
 72
     1
 10
-41.70463452882427
 20
7.269119509320916
 11
-42.94513893907717
 21
7.269119509320916
 72
     1
 10
-42.94513893907717
 20
7.269119509320916
 11
-42.94513893907717
 21
10.32292903313211
 72
     1
 10
-42.94513893907717
 20
10.32292903313211
 11
-41.70463452882427
 21
10.32292903313211
 97
        4
330
19B
330
14A
330
19A
330
19C
 75
     1
 76
     0
 52
45.0
 41
0.1
 77
     0
 78
     1
 53
45.0
 43
0.0
 44
0.0
 45
-0.0707106781186548
 46
0.0707106781186548
 79
     0
 98
        1
 10
0.0
 20
0.0
  0
HATCH
  5
262
330
71
100
AcDbEntity
  8
1
  6
Continuous
 62
     2
100
AcDbHatch
 10
0.0
 20
0.0
 30
0.0
210
0.0
220
0.0
230
1.0
  2
_USER
 70
     0
 71
     1
 91
        1
 92
        1
 93
        4
 72
     1
 10
-41.70463452882427
 20
10.32292903313211
 11
-41.70463452882427
 21
7.269119509320916
 72
     1
 10
-41.70463452882427
 20
7.269119509320916
 11
-42.94513893907717
 21
7.269119509320916
 72
     1
 10
-42.94513893907717
 20
7.269119509320916
 11
-42.94513893907717
 21
10.32292903313211
 72
     1
 10
-42.94513893907717
 20
10.32292903313211
 11
-41.70463452882427
 21
10.32292903313211
 97
        4
330
19B
330
14A
330
19A
330
19C
 75
     1
 76
     0
 52
45.0
 41
0.1
 77
     0
 78
     1
 53
45.0
 43
0.0
 44
0.0
 45
-0.0707106781186548
 46
0.0707106781186548
 79
     0
 98
        1
 10
0.0
 20
0.0
  0
HATCH
  5
263
330
71
100
AcDbEntity
  8
1
  6
Continuous
 62
     2
100
AcDbHatch
 10
0.0
 20
0.0
 30
0.0
210
0.0
220
0.0
230
1.0
  2
_USER
 70
     0
 71
     1
 91
        2
 92
        1
 93
        8
 72
     1
 10
-42.09507853235627
 20
3.909929033146625
 11
-43.33558294261019
 21
3.909929033146625
 72
     1
 10
-43.33558294261019
 20
3.909929033146625
 11
-43.54706299608597
 21
4.450889577364507
 72
     1
 10
-43.54706299608597
 20
4.450889577364507
 11
-44.67950457275978
 21
4.450889577364507
 72
     1
 10
-44.67950457275978
 20
4.450889577364507
 11
-44.89098462623559
 21
3.909929033146625
 72
     1
 10
-44.89098462623559
 20
3.909929033146625
 11
-46.13148903648857
 21
3.909929033146625
 72
     1
 10
-46.13148903648857
 20
3.909929033146625
 11
-44.73353598954927
 21
6.963738556957708
 72
     1
 10
-44.73353598954927
 20
6.963738556957708
 11
-43.49303157929657
 21
6.963738556957708
 72
     1
 10
-43.49303157929657
 20
6.963738556957708
 11
-42.09507853235627
 21
3.909929033146625
 97
        8
330
196
330
150
330
195
330
198
330
14D
330
197
330
14E
330
14F
 92
       16
 93
        3
 72
     1
 10
-44.41344902161478
 20
5.131452842671109
 11
-43.81311854723228
 21
5.131452842671109
 72
     1
 10
-43.81311854723228
 20
5.131452842671109
 11
-44.11328378442238
 21
5.899267808657811
 72
     1
 10
-44.11328378442238
 20
5.899267808657811
 11
-44.41344902161478
 21
5.131452842671109
 97
        3
330
14C
330
14B
330
199
 75
     1
 76
     0
 52
45.0
 41
0.1
 77
     0
 78
     1
 53
45.0
 43
0.0
 44
0.0
 45
-0.0707106781186548
 46
0.0707106781186548
 79
     0
 98
        1
 10
0.0
 20
0.0
  0
HATCH
  5
264
330
71
100
AcDbEntity
  8
1
  6
Continuous
 62
     2
100
AcDbHatch
 10
0.0
 20
0.0
 30
0.0
210
0.0
220
0.0
230
1.0
  2
_USER
 70
     0
 71
     1
 91
        2
 92
        1
 93
        8
 72
     1
 10
-42.09507853235627
 20
3.909929033146625
 11
-43.33558294261019
 21
3.909929033146625
 72
     1
 10
-43.33558294261019
 20
3.909929033146625
 11
-43.54706299608597
 21
4.450889577364507
 72
     1
 10
-43.54706299608597
 20
4.450889577364507
 11
-44.67950457275978
 21
4.450889577364507
 72
     1
 10
-44.67950457275978
 20
4.450889577364507
 11
-44.89098462623559
 21
3.909929033146625
 72
     1
 10
-44.89098462623559
 20
3.909929033146625
 11
-46.13148903648857
 21
3.909929033146625
 72
     1
 10
-46.13148903648857
 20
3.909929033146625
 11
-44.73353598954927
 21
6.963738556957708
 72
     1
 10
-44.73353598954927
 20
6.963738556957708
 11
-43.49303157929657
 21
6.963738556957708
 72
     1
 10
-43.49303157929657
 20
6.963738556957708
 11
-42.09507853235627
 21
3.909929033146625
 97
        8
330
196
330
150
330
195
330
198
330
14D
330
197
330
14E
330
14F
 92
       16
 93
        3
 72
     1
 10
-44.41344902161478
 20
5.131452842671109
 11
-43.81311854723228
 21
5.131452842671109
 72
     1
 10
-43.81311854723228
 20
5.131452842671109
 11
-44.11328378442238
 21
5.899267808657811
 72
     1
 10
-44.11328378442238
 20
5.899267808657811
 11
-44.41344902161478
 21
5.131452842671109
 97
        3
330
14C
330
14B
330
199
 75
     1
 76
     0
 52
45.0
 41
0.1
 77
     0
 78
     1
 53
45.0
 43
0.0
 44
0.0
 45
-0.0707106781186548
 46
0.0707106781186548
 79
     0
 98
        1
 10
0.0
 20
0.0
  0
HATCH
  5
265
330
71
100
AcDbEntity
  8
1
  6
Continuous
 62
     2
100
AcDbHatch
 10
0.0
 20
0.0
 30
0.0
210
0.0
220
0.0
230
1.0
  2
_USER
 70
     0
 71
     1
 91
        1
 92
        1
 93
        8
 72
     1
 10
-48.28900117567079
 20
6.963738556957708
 11
-48.28900117567079
 21
6.178473250834117
 72
     1
 10
-48.28900117567079
 20
6.178473250834117
 11
-47.47790213819619
 21
6.178473250834117
 72
     1
 10
-47.47790213819619
 20
6.178473250834117
 11
-47.47790213819619
 21
3.909929033146625
 72
     1
 10
-47.47790213819619
 20
3.909929033146625
 11
-46.28510943602967
 21
3.909929033146625
 72
     1
 10
-46.28510943602967
 20
3.909929033146625
 11
-46.28510943602967
 21
6.178473250834117
 72
     1
 10
-46.28510943602967
 20
6.178473250834117
 11
-45.47401039855717
 21
6.178473250834117
 72
     1
 10
-45.47401039855717
 20
6.178473250834117
 11
-45.47401039855717
 21
6.963738556957708
 72
     1
 10
-45.47401039855717
 20
6.963738556957708
 11
-48.28900117567079
 21
6.963738556957708
 97
        8
330
192
330
191
330
190
330
151
330
152
330
194
330
153
330
193
 75
     1
 76
     0
 52
45.0
 41
0.1
 77
     0
 78
     1
 53
45.0
 43
0.0
 44
0.0
 45
-0.0707106781186548
 46
0.0707106781186548
 79
     0
 98
        1
 10
0.0
 20
0.0
  0
HATCH
  5
266
330
71
100
AcDbEntity
  8
1
  6
Continuous
 62
     2
100
AcDbHatch
 10
0.0
 20
0.0
 30
0.0
210
0.0
220
0.0
230
1.0
  2
_USER
 70
     0
 71
     1
 91
        1
 92
        1
 93
        8
 72
     1
 10
-48.28900117567079
 20
6.963738556957708
 11
-48.28900117567079
 21
6.178473250834117
 72
     1
 10
-48.28900117567079
 20
6.178473250834117
 11
-47.47790213819619
 21
6.178473250834117
 72
     1
 10
-47.47790213819619
 20
6.178473250834117
 11
-47.47790213819619
 21
3.909929033146625
 72
     1
 10
-47.47790213819619
 20
3.909929033146625
 11
-46.28510943602967
 21
3.909929033146625
 72
     1
 10
-46.28510943602967
 20
3.909929033146625
 11
-46.28510943602967
 21
6.178473250834117
 72
     1
 10
-46.28510943602967
 20
6.178473250834117
 11
-45.47401039855717
 21
6.178473250834117
 72
     1
 10
-45.47401039855717
 20
6.178473250834117
 11
-45.47401039855717
 21
6.963738556957708
 72
     1
 10
-45.47401039855717
 20
6.963738556957708
 11
-48.28900117567079
 21
6.963738556957708
 97
        8
330
192
330
191
330
190
330
151
330
152
330
194
330
153
330
193
 75
     1
 76
     0
 52
45.0
 41
0.1
 77
     0
 78
     1
 53
45.0
 43
0.0
 44
0.0
 45
-0.0707106781186548
 46
0.0707106781186548
 79
     0
 98
        1
 10
0.0
 20
0.0
  0
HATCH
  5
267
330
71
100
AcDbEntity
  8
1
  6
Continuous
 62
     2
100
AcDbHatch
 10
0.0
 20
0.0
 30
0.0
210
0.0
220
0.0
230
1.0
  2
_USER
 70
     0
 71
     1
 91
        1
 92
        1
 93
       10
 72
     1
 10
-45.61699459193167
 20
10.32292903313211
 11
-46.80978729409819
 21
10.32292903313211
 72
     1
 10
-46.80978729409819
 20
10.32292903313211
 11
-46.80978729409819
 21
7.269119509320916
 72
     1
 10
-46.80978729409819
 20
7.269119509320916
 11
-45.61699459193167
 21
7.269119509320916
 72
     1
 10
-45.61699459193167
 20
7.269119509320916
 11
-45.61699459193167
 21
8.577895019525613
 72
     1
 10
-45.61699459193167
 20
8.577895019525613
 11
-44.37649018167767
 21
7.269119509320916
 72
     1
 10
-44.37649018167767
 20
7.269119509320916
 11
-43.18369747951107
 21
7.269119509320916
 72
     1
 10
-43.18369747951107
 20
7.269119509320916
 11
-43.18369747951107
 21
10.32292903313211
 72
     1
 10
-43.18369747951107
 20
10.32292903313211
 11
-44.37649018167767
 21
10.32292903313211
 72
     1
 10
-44.37649018167767
 20
10.32292903313211
 11
-44.37649018167767
 21
9.014153522926932
 72
     1
 10
-44.37649018167767
 20
9.014153522926932
 11
-45.61699459193167
 21
10.32292903313211
 97
       10
330
18C
330
156
330
157
330
158
330
159
330
18F
330
154
330
18E
330
18D
330
155
 75
     1
 76
     0
 52
45.0
 41
0.1
 77
     0
 78
     1
 53
45.0
 43
0.0
 44
0.0
 45
-0.0707106781186548
 46
0.0707106781186548
 79
     0
 98
        1
 10
0.0
 20
0.0
  0
HATCH
  5
268
330
71
100
AcDbEntity
  8
1
  6
Continuous
 62
     2
100
AcDbHatch
 10
0.0
 20
0.0
 30
0.0
210
0.0
220
0.0
230
1.0
  2
_USER
 70
     0
 71
     1
 91
        1
 92
        1
 93
       10
 72
     1
 10
-45.61699459193167
 20
10.32292903313211
 11
-46.80978729409819
 21
10.32292903313211
 72
     1
 10
-46.80978729409819
 20
10.32292903313211
 11
-46.80978729409819
 21
7.269119509320916
 72
     1
 10
-46.80978729409819
 20
7.269119509320916
 11
-45.61699459193167
 21
7.269119509320916
 72
     1
 10
-45.61699459193167
 20
7.269119509320916
 11
-45.61699459193167
 21
8.577895019525613
 72
     1
 10
-45.61699459193167
 20
8.577895019525613
 11
-44.37649018167767
 21
7.269119509320916
 72
     1
 10
-44.37649018167767
 20
7.269119509320916
 11
-43.18369747951107
 21
7.269119509320916
 72
     1
 10
-43.18369747951107
 20
7.269119509320916
 11
-43.18369747951107
 21
10.32292903313211
 72
     1
 10
-43.18369747951107
 20
10.32292903313211
 11
-44.37649018167767
 21
10.32292903313211
 72
     1
 10
-44.37649018167767
 20
10.32292903313211
 11
-44.37649018167767
 21
9.014153522926932
 72
     1
 10
-44.37649018167767
 20
9.014153522926932
 11
-45.61699459193167
 21
10.32292903313211
 97
       10
330
18C
330
156
330
157
330
158
330
159
330
18F
330
154
330
18E
330
18D
330
155
 75
     1
 76
     0
 52
45.0
 41
0.1
 77
     0
 78
     1
 53
45.0
 43
0.0
 44
0.0
 45
-0.0707106781186548
 46
0.0707106781186548
 79
     0
 98
        1
 10
0.0
 20
0.0
  0
HATCH
  5
269
330
71
100
AcDbEntity
  8
1
  6
Continuous
 62
     2
100
AcDbHatch
 10
0.0
 20
0.0
 30
0.0
210
0.0
220
0.0
230
1.0
  2
_USER
 70
     0
 71
     1
 91
        1
 92
        1
 93
       10
 72
     1
 10
-50.86543341235029
 20
6.963738556957708
 11
-52.05822611451788
 21
6.963738556957708
 72
     1
 10
-52.05822611451788
 20
6.963738556957708
 11
-52.05822611451788
 21
3.909929033146625
 72
     1
 10
-52.05822611451788
 20
3.909929033146625
 11
-50.86543341235029
 21
3.909929033146625
 72
     1
 10
-50.86543341235029
 20
3.909929033146625
 11
-50.86543341235029
 21
5.218704543351208
 72
     1
 10
-50.86543341235029
 20
5.218704543351208
 11
-49.62492900209739
 21
3.909929033146625
 72
     1
 10
-49.62492900209739
 20
3.909929033146625
 11
-48.43213629993099
 21
3.909929033146625
 72
     1
 10
-48.43213629993099
 20
3.909929033146625
 11
-48.43213629993099
 21
6.963738556957708
 72
     1
 10
-48.43213629993099
 20
6.963738556957708
 11
-49.62492900209739
 21
6.963738556957708
 72
     1
 10
-49.62492900209739
 20
6.963738556957708
 11
-49.62492900209739
 21
5.654963046752613
 72
     1
 10
-49.62492900209739
 20
5.654963046752613
 11
-50.86543341235029
 21
6.963738556957708
 97
       10
330
15B
330
15C
330
15D
330
189
330
15E
330
15F
330
188
330
18B
330
18A
330
15A
 75
     1
 76
     0
 52
45.0
 41
0.1
 77
     0
 78
     1
 53
45.0
 43
0.0
 44
0.0
 45
-0.0707106781186548
 46
0.0707106781186548
 79
     0
 98
        1
 10
0.0
 20
0.0
  0
HATCH
  5
26A
330
71
100
AcDbEntity
  8
1
  6
Continuous
 62
     2
100
AcDbHatch
 10
0.0
 20
0.0
 30
0.0
210
0.0
220
0.0
230
1.0
  2
_USER
 70
     0
 71
     1
 91
        1
 92
        1
 93
       10
 72
     1
 10
-50.86543341235029
 20
6.963738556957708
 11
-52.05822611451788
 21
6.963738556957708
 72
     1
 10
-52.05822611451788
 20
6.963738556957708
 11
-52.05822611451788
 21
3.909929033146625
 72
     1
 10
-52.05822611451788
 20
3.909929033146625
 11
-50.86543341235029
 21
3.909929033146625
 72
     1
 10
-50.86543341235029
 20
3.909929033146625
 11
-50.86543341235029
 21
5.218704543351208
 72
     1
 10
-50.86543341235029
 20
5.218704543351208
 11
-49.62492900209739
 21
3.909929033146625
 72
     1
 10
-49.62492900209739
 20
3.909929033146625
 11
-48.43213629993099
 21
3.909929033146625
 72
     1
 10
-48.43213629993099
 20
3.909929033146625
 11
-48.43213629993099
 21
6.963738556957708
 72
     1
 10
-48.43213629993099
 20
6.963738556957708
 11
-49.62492900209739
 21
6.963738556957708
 72
     1
 10
-49.62492900209739
 20
6.963738556957708
 11
-49.62492900209739
 21
5.654963046752613
 72
     1
 10
-49.62492900209739
 20
5.654963046752613
 11
-50.86543341235029
 21
6.963738556957708
 97
       10
330
15B
330
15C
330
15D
330
189
330
15E
330
15F
330
188
330
18B
330
18A
330
15A
 75
     1
 76
     0
 52
45.0
 41
0.1
 77
     0
 78
     1
 53
45.0
 43
0.0
 44
0.0
 45
-0.0707106781186548
 46
0.0707106781186548
 79
     0
 98
        1
 10
0.0
 20
0.0
  0
HATCH
  5
26B
330
71
100
AcDbEntity
  8
1
  6
Continuous
 62
     2
100
AcDbHatch
 10
0.0
 20
0.0
 30
0.0
210
0.0
220
0.0
230
1.0
  2
_USER
 70
     0
 71
     1
 91
        1
 92
        1
 93
       12
 72
     1
 10
-51.86722835128569
 20
10.32292903313211
 11
-51.86722835128569
 21
7.269119509320916
 72
     1
 10
-51.86722835128569
 20
7.269119509320916
 11
-53.06002105345209
 21
7.269119509320916
 72
     1
 10
-53.06002105345209
 20
7.269119509320916
 11
-53.06002105345209
 21
8.403391618164733
 72
     1
 10
-53.06002105345209
 20
8.403391618164733
 11
-54.10967863135957
 21
8.403391618164733
 72
     1
 10
-54.10967863135957
 20
8.403391618164733
 11
-54.10967863135957
 21
7.269119509320916
 72
     1
 10
-54.10967863135957
 20
7.269119509320916
 11
-55.30247133352617
 21
7.269119509320916
 72
     1
 10
-55.30247133352617
 20
7.269119509320916
 11
-55.30247133352617
 21
10.32292903313211
 72
     1
 10
-55.30247133352617
 20
10.32292903313211
 11
-54.10967863135957
 21
10.32292903313211
 72
     1
 10
-54.10967863135957
 20
10.32292903313211
 11
-54.10967863135957
 21
9.254095699797517
 72
     1
 10
-54.10967863135957
 20
9.254095699797517
 11
-53.06002105345209
 21
9.254095699797517
 72
     1
 10
-53.06002105345209
 20
9.254095699797517
 11
-53.06002105345209
 21
10.32292903313211
 72
     1
 10
-53.06002105345209
 20
10.32292903313211
 11
-51.86722835128569
 21
10.32292903313211
 97
       12
330
183
330
182
330
181
330
169
330
16A
330
180
330
16B
330
17F
330
17E
330
17D
330
167
330
168
 75
     1
 76
     0
 52
45.0
 41
0.1
 77
     0
 78
     1
 53
45.0
 43
0.0
 44
0.0
 45
-0.0707106781186548
 46
0.0707106781186548
 79
     0
 98
        1
 10
0.0
 20
0.0
  0
HATCH
  5
26C
330
71
100
AcDbEntity
  8
1
  6
Continuous
 62
     2
100
AcDbHatch
 10
0.0
 20
0.0
 30
0.0
210
0.0
220
0.0
230
1.0
  2
_USER
 70
     0
 71
     1
 91
        1
 92
        1
 93
       12
 72
     1
 10
-51.86722835128569
 20
10.32292903313211
 11
-51.86722835128569
 21
7.269119509320916
 72
     1
 10
-51.86722835128569
 20
7.269119509320916
 11
-53.06002105345209
 21
7.269119509320916
 72
     1
 10
-53.06002105345209
 20
7.269119509320916
 11
-53.06002105345209
 21
8.403391618164733
 72
     1
 10
-53.06002105345209
 20
8.403391618164733
 11
-54.10967863135957
 21
8.403391618164733
 72
     1
 10
-54.10967863135957
 20
8.403391618164733
 11
-54.10967863135957
 21
7.269119509320916
 72
     1
 10
-54.10967863135957
 20
7.269119509320916
 11
-55.30247133352617
 21
7.269119509320916
 72
     1
 10
-55.30247133352617
 20
7.269119509320916
 11
-55.30247133352617
 21
10.32292903313211
 72
     1
 10
-55.30247133352617
 20
10.32292903313211
 11
-54.10967863135957
 21
10.32292903313211
 72
     1
 10
-54.10967863135957
 20
10.32292903313211
 11
-54.10967863135957
 21
9.254095699797517
 72
     1
 10
-54.10967863135957
 20
9.254095699797517
 11
-53.06002105345209
 21
9.254095699797517
 72
     1
 10
-53.06002105345209
 20
9.254095699797517
 11
-53.06002105345209
 21
10.32292903313211
 72
     1
 10
-53.06002105345209
 20
10.32292903313211
 11
-51.86722835128569
 21
10.32292903313211
 97
       12
330
183
330
182
330
181
330
169
330
16A
330
180
330
16B
330
17F
330
17E
330
17D
330
167
330
168
 75
     1
 76
     0
 52
45.0
 41
0.1
 77
     0
 78
     1
 53
45.0
 43
0.0
 44
0.0
 45
-0.0707106781186548
 46
0.0707106781186548
 79
     0
 98
        1
 10
0.0
 20
0.0
  0
ENDBLK
  5
73
330
71
100
AcDbEntity
  8
0
100
AcDbBlockEnd
  0
BLOCK
  5
75
330
74
100
AcDbEntity
  8
0
100
AcDbBlockBegin
  2
_punkt
 70
     0
 10
60.01007546250322
 20
-3.38357096686968
 30
0.0
  3
_punkt
  1

  0
LINE
  5
26D
330
74
100
AcDbEntity
  8
1
  6
Continuous
 62
     2
100
AcDbLine
 10
60.01007546250322
 20
-3.38357096686968
 30
0.0
 11
60.01007546250322
 21
-8.3835709668698
 31
0.0
  0
LINE
  5
26E
330
74
100
AcDbEntity
  8
1
  6
Continuous
 62
     2
100
AcDbLine
 10
60.01007546250322
 20
-3.38357096686968
 30
0.0
 11
65.01007546250221
 21
-3.38357096686968
 31
0.0
  0
ENDBLK
  5
76
330
74
100
AcDbEntity
  8
0
100
AcDbBlockEnd
  0
BLOCK
  5
7A
330
77
100
AcDbEntity
  8
0
100
AcDbBlockBegin
  2
A4I_CS
 70
     0
 10
60.01007546250322
 20
-8.3835709668698
 30
0.0
  3
A4I_CS
  1

  0
INSERT
  5
78
330
77
100
AcDbEntity
  8
1
100
AcDbBlockReference
  2
_rahmen
 10
60.01007546250322
 20
-8.3835709668698
 30
0.0
  0
INSERT
  5
79
330
77
100
AcDbEntity
  8
1
100
AcDbBlockReference
  2
_punkt
 10
60.01007546250322
 20
-3.38357096686968
 30
0.0
  0
ENDBLK
  5
7B
330
77
100
AcDbEntity
  8
0
100
AcDbBlockEnd
  0
BLOCK
  5
84
330
7C
100
AcDbEntity
  8
0
100
AcDbBlockBegin
  2
1
 70
     0
 10
0.0
 20
0.0
 30
0.0
  3
1
  1

  0
INSERT
  5
7D
330
7C
100
AcDbEntity
  8
0
100
AcDbBlockReference
  2
AllgSicht1
 10
-1.99999999999901
 20
70.0
 30
0.0
  0
INSERT
  5
7E
330
7C
100
AcDbEntity
  8
0
100
AcDbBlockReference
  2
Drfsicht1
 10
-122.7874989509584
 20
81.07499969005107
 30
0.0
  0
INSERT
  5
7F
330
7C
100
AcDbEntity
  8
0
100
AcDbBlockReference
  2
Rckans1
 10
-9.21250104904064
 20
139.9999999999999
 30
0.0
  0
INSERT
  5
80
330
7C
100
AcDbEntity
  8
0
100
AcDbBlockReference
  2
SA_Links1
 10
-67.84990150875345
 20
139.9999999999998
 30
0.0
  0
INSERT
  5
81
330
7C
100
AcDbEntity
  8
0
100
AcDbBlockReference
  2
SA_Rechts1
 10
-194.5749979019216
 20
140.0
 30
0.0
  0
INSERT
  5
82
330
7C
100
AcDbEntity
  8
0
100
AcDbBlockReference
  2
Vordans1
 10
-122.7874989509584
 20
140.0
 30
0.0
  0
INSERT
  5
83
330
7C
100
AcDbEntity
  8
0
100
AcDbBlockReference
  2
A4I_CS
 10
60.01007546250322
 20
-8.3835709668698
 30
0.0
  0
ENDBLK
  5
85
330
7C
100
AcDbEntity
  8
0
100
AcDbBlockEnd
  0
BLOCK
  5
CD
330
C4
100
AcDbEntity
  8
0
100
AcDbBlockBegin
  2
*D17
 70
     1
 10
0.0
 20
0.0
 30
0.0
  3
*D17
  1

  0
LINE
  5
C5
330
C4
100
AcDbEntity
  8
1
  6
Continuous
 62
     2
100
AcDbLine
 10
-167.0062108947441
 20
94.90621295271072
 30
0.0
 11
-167.0062108947441
 21
82.17499971388791
 31
0.0
  0
LINE
  5
C6
330
C4
100
AcDbEntity
  8
1
  6
Continuous
 62
     2
100
AcDbLine
 10
-167.0062108947441
 20
82.17499971388791
 30
0.0
 11
-167.0062108947441
 21
79.97499971388791
 31
0.0
  0
LINE
  5
C7
330
C4
100
AcDbEntity
  8
1
  6
Continuous
 62
     2
100
AcDbLine
 10
-167.0062108947441
 20
79.97499971388791
 30
0.0
 11
-167.0062108947441
 21
72.97499971388791
 31
0.0
  0
LINE
  5
C8
330
C4
100
AcDbEntity
  8
1
  6
Continuous
 62
     2
100
AcDbLine
 10
-159.0749995475313
 20
82.17499971388791
 30
0.0
 11
-168.5062108947441
 21
82.17499971388791
 31
0.0
  0
LINE
  5
C9
330
C4
100
AcDbEntity
  8
1
  6
Continuous
 62
     2
100
AcDbLine
 10
-159.0749995475313
 20
79.97499971388791
 30
0.0
 11
-168.5062108947441
 21
79.97499971388791
 31
0.0
  0
SOLID
  5
CA
330
C4
100
AcDbEntity
  8
1
 62
     2
100
AcDbTrace
 10
-167.4669946363
 20
85.67499971388791
 30
0.0
 11
-166.5454271531882
 21
85.67499971388791
 31
0.0
 12
-167.0062108947441
 22
82.17499971388791
 32
0.0
 13
-167.0062108947441
 23
82.17499971388791
 33
0.0
  0
SOLID
  5
CB
330
C4
100
AcDbEntity
  8
1
 62
     2
100
AcDbTrace
 10
-166.5454271531882
 20
76.47499971388791
 30
0.0
 11
-167.4669946363
 21
76.47499971388791
 31
0.0
 12
-167.0062108947441
 22
79.97499971388791
 32
0.0
 13
-167.0062108947441
 23
79.97499971388791
 33
0.0
  0
MTEXT
  5
CC
330
C4
100
AcDbEntity
  8
1
 62
     3
100
AcDbMText
 10
-169.3562108947441
 20
88.43121295271072
 30
0.0
 40
3.5
 41
0.0
 71
     7
 72
     1
  1
2,2
  7
CONVERTER_11
 11
0.0
 21
1.0
 31
0.0
 73
     1
 44
0.60024009603842
  0
ENDBLK
  5
CE
330
C4
100
AcDbEntity
  8
0
100
AcDbBlockEnd
  0
BLOCK
  5
127
330
120
100
AcDbEntity
  8
0
100
AcDbBlockBegin
  2
*D18
 70
     1
 10
0.0
 20
0.0
 30
0.0
  3
*D18
  1

  0
LINE
  5
121
330
120
100
AcDbEntity
  8
1
  6
Continuous
 62
     2
100
AcDbLine
 10
-166.9572588819301
 20
159.8250006642057
 30
0.0
 11
-166.9572588819301
 21
120.1750006642135
 31
0.0
  0
LINE
  5
122
330
120
100
AcDbEntity
  8
1
  6
Continuous
 62
     2
100
AcDbLine
 10
-144.3789962393262
 20
159.8250006642057
 30
0.0
 11
-168.4572588819301
 21
159.8250006642057
 31
0.0
  0
LINE
  5
123
330
120
100
AcDbEntity
  8
1
  6
Continuous
 62
     2
100
AcDbLine
 10
-159.0749995475313
 20
120.1750006642135
 30
0.0
 11
-168.4572588819301
 21
120.1750006642135
 31
0.0
  0
SOLID
  5
124
330
120
100
AcDbEntity
  8
1
 62
     2
100
AcDbTrace
 10
-166.4964751403742
 20
156.3250006642057
 30
0.0
 11
-167.418042623486
 21
156.3250006642057
 31
0.0
 12
-166.9572588819301
 22
159.8250006642057
 32
0.0
 13
-166.9572588819301
 23
159.8250006642057
 33
0.0
  0
SOLID
  5
125
330
120
100
AcDbEntity
  8
1
 62
     2
100
AcDbTrace
 10
-167.418042623486
 20
123.6750006642135
 30
0.0
 11
-166.4964751403742
 21
123.6750006642135
 31
0.0
 12
-166.9572588819301
 22
120.1750006642135
 32
0.0
 13
-166.9572588819301
 23
120.1750006642135
 33
0.0
  0
MTEXT
  5
126
330
120
100
AcDbEntity
  8
1
 62
     3
100
AcDbMText
 10
-169.3072588819301
 20
133.924518270319
 30
0.0
 40
3.5
 41
0.0
 71
     7
 72
     1
  1
39,65
  7
CONVERTER_11
 11
0.0
 21
1.0
 31
0.0
 73
     1
 44
0.60024009603842
  0
ENDBLK
  5
128
330
120
100
AcDbEntity
  8
0
100
AcDbBlockEnd
  0
BLOCK
  5
132
330
12B
100
AcDbEntity
  8
0
100
AcDbBlockBegin
  2
*D19
 70
     1
 10
0.0
 20
0.0
 30
0.0
  3
*D19
  1

  0
LINE
  5
12C
330
12B
100
AcDbEntity
  8
1
  6
Continuous
 62
     2
100
AcDbLine
 10
-86.99999954753132
 20
109.5784196326003
 30
0.0
 11
-158.5749995475313
 21
109.5784196326003
 31
0.0
  0
LINE
  5
12D
330
12B
100
AcDbEntity
  8
1
  6
Continuous
 62
     2
100
AcDbLine
 10
-86.99999954753132
 20
125.1750006322149
 30
0.0
 11
-86.99999954753132
 21
107.5784196326003
 31
0.0
  0
LINE
  5
12E
330
12B
100
AcDbEntity
  8
1
  6
Continuous
 62
     2
100
AcDbLine
 10
-158.5749995475313
 20
120.1750006642136
 30
0.0
 11
-158.5749995475313
 21
107.5784196326003
 31
0.0
  0
SOLID
  5
12F
330
12B
100
AcDbEntity
  8
1
 62
     2
100
AcDbTrace
 10
-90.49999954753132
 20
109.1176358910444
 30
0.0
 11
-90.49999954753132
 21
110.0392033741562
 31
0.0
 12
-86.99999954753132
 22
109.5784196326003
 32
0.0
 13
-86.99999954753132
 23
109.5784196326003
 33
0.0
  0
SOLID
  5
130
330
12B
100
AcDbEntity
  8
1
 62
     2
100
AcDbTrace
 10
-155.0749995475313
 20
110.0392033741562
 30
0.0
 11
-155.0749995475313
 21
109.1176358910444
 31
0.0
 12
-158.5749995475313
 22
109.5784196326003
 32
0.0
 13
-158.5749995475313
 23
109.5784196326003
 33
0.0
  0
MTEXT
  5
131
330
12B
100
AcDbEntity
  8
1
 62
     3
100
AcDbMText
 10
-128.6499989509584
 20
111.9284196326003
 30
0.0
 40
3.5
 41
0.0
 71
     7
 72
     1
  1
71,58
  7
CONVERTER_11
 11
0.9999999999970619
 21
2.424068405545306E-6
 31
0.0
 73
     1
 44
0.60024009603842
  0
ENDBLK
  5
133
330
12B
100
AcDbEntity
  8
0
100
AcDbBlockEnd
  0
ENDSEC
  0
SECTION
  2
ENTITIES
  0
INSERT
  5
86
330
1F
100
AcDbEntity
  8
1
100
AcDbBlockReference
  2
1
 10
0.0
 20
0.0
 30
0.0
  0
ENDSEC
  0
SECTION
  2
OBJECTS
  0
DICTIONARY
  5
C
330
0
100
AcDbDictionary
281
     1
  3
ACAD_GROUP
350
D
  3
ACAD_LAYOUT
350
1A
  3
ACAD_MATERIAL
350
3B
  3
ACAD_MLEADERSTYLE
350
296
  3
ACAD_MLINESTYLE
350
17
  3
ACAD_PLOTSETTINGS
350
19
  3
ACAD_PLOTSTYLENAME
350
E
  3
ACAD_TABLESTYLE
350
295
  3
ACAD_VISUALSTYLE
350
2A
  0
DICTIONARY
  5
D
102
{ACAD_REACTORS
330
C
102
}
330
C
100
AcDbDictionary
281
     1
  0
DICTIONARY
  5
1A
102
{ACAD_REACTORS
330
C
102
}
330
C
100
AcDbDictionary
281
     1
  3
Layout1
350
1E
  3
Layout2
350
26
  3
Model
350
22
  0
DICTIONARY
  5
3B
102
{ACAD_REACTORS
330
C
102
}
330
C
100
AcDbDictionary
281
     1
  3
ByBlock
350
3D
  3
ByLayer
350
3C
  3
Global
350
3E
  0
DICTIONARY
  5
296
102
{ACAD_REACTORS
330
C
102
}
330
C
100
AcDbDictionary
281
     1
  0
DICTIONARY
  5
17
102
{ACAD_REACTORS
330
C
102
}
330
C
100
AcDbDictionary
281
     1
  3
Standard
350
18
  0
DICTIONARY
  5
19
102
{ACAD_REACTORS
330
C
102
}
330
C
100
AcDbDictionary
281
     1
  0
ACDBDICTIONARYWDFLT
  5
E
102
{ACAD_REACTORS
330
C
102
}
330
C
100
AcDbDictionary
281
     1
  3
Normal
350
F
100
AcDbDictionaryWithDefault
340
F
  0
DICTIONARY
  5
295
102
{ACAD_REACTORS
330
C
102
}
330
C
100
AcDbDictionary
281
     1
  0
DICTIONARY
  5
2A
102
{ACAD_REACTORS
330
C
102
}
330
C
100
AcDbDictionary
281
     1
  3
2dWireframe
350
2F
  3
3D Hidden
350
31
  3
3dWireframe
350
30
  3
Basic
350
32
  3
Brighten
350
36
  3
ColorChange
350
3A
  3
Conceptual
350
34
  3
Dim
350
35
  3
Facepattern
350
39
  3
Flat
350
2B
  3
FlatWithEdges
350
2C
  3
Gouraud
350
2D
  3
GouraudWithEdges
350
2E
  3
Linepattern
350
38
  3
Realistic
350
33
  3
Thicken
350
37
  0
LAYOUT
  5
1E
102
{ACAD_REACTORS
330
1A
102
}
330
1A
100
AcDbPlotSettings
  1

  2
none_device
  4

  6

 40
0.0
 41
0.0
 42
0.0
 43
0.0
 44
0.0
 45
0.0
 46
0.0
 47
0.0
 48
0.0
 49
0.0
140
0.0
141
0.0
142
1.0
143
1.0
 70
   688
 72
     0
 73
     0
 74
     5
  7

 75
    16
 76
     0
 77
     2
 78
   300
147
1.0
148
0.0
149
0.0
100
AcDbLayout
  1
Layout1
 70
     1
 71
     1
 10
0.0
 20
0.0
 11
12.0
 21
9.0
 12
0.0
 22
0.0
 32
0.0
 14
1.00000000000000E+20
 24
1.00000000000000E+20
 34
1.00000000000000E+20
 15
-1.00000000000000E+20
 25
-1.00000000000000E+20
 35
-1.00000000000000E+20
146
0.0
 13
0.0
 23
0.0
 33
0.0
 16
1.0
 26
0.0
 36
0.0
 17
0.0
 27
1.0
 37
0.0
 76
     0
330
1B
  0
LAYOUT
  5
26
102
{ACAD_REACTORS
330
1A
102
}
330
1A
100
AcDbPlotSettings
  1

  2
none_device
  4

  6

 40
0.0
 41
0.0
 42
0.0
 43
0.0
 44
0.0
 45
0.0
 46
0.0
 47
0.0
 48
0.0
 49
0.0
140
0.0
141
0.0
142
1.0
143
1.0
 70
   688
 72
     0
 73
     0
 74
     5
  7

 75
    16
 76
     0
 77
     2
 78
   300
147
1.0
148
0.0
149
0.0
100
AcDbLayout
  1
Layout2
 70
     1
 71
     2
 10
0.0
 20
0.0
 11
0.0
 21
0.0
 12
0.0
 22
0.0
 32
0.0
 14
0.0
 24
0.0
 34
0.0
 15
0.0
 25
0.0
 35
0.0
146
0.0
 13
0.0
 23
0.0
 33
0.0
 16
1.0
 26
0.0
 36
0.0
 17
0.0
 27
1.0
 37
0.0
 76
     0
330
23
  0
LAYOUT
  5
22
102
{ACAD_REACTORS
330
1A
102
}
330
1A
100
AcDbPlotSettings
  1

  2
none_device
  4

  6

 40
0.0
 41
0.0
 42
0.0
 43
0.0
 44
0.0
 45
0.0
 46
0.0
 47
0.0
 48
0.0
 49
0.0
140
0.0
141
0.0
142
1.0
143
1.0
 70
  1712
 72
     0
 73
     0
 74
     0
  7

 75
     0
 76
     0
 77
     2
 78
   300
147
1.0
148
0.0
149
0.0
100
AcDbLayout
  1
Model
 70
     1
 71
     0
 10
0.0
 20
0.0
 11
12.0
 21
9.0
 12
0.0
 22
0.0
 32
0.0
 14
-231.9899245374959
 24
-8.3835709668698
 34
0.0
 15
65.01007546250221
 25
201.6164290331303
 35
0.0
146
0.0
 13
0.0
 23
0.0
 33
0.0
 16
1.0
 26
0.0
 36
0.0
 17
0.0
 27
1.0
 37
0.0
 76
     0
330
1F
331
29
  0
MATERIAL
  5
3D
102
{ACAD_REACTORS
330
3B
102
}
102
{ACAD_XDICTIONARY
360
291
102
}
330
3B
100
AcDbMaterial
  1
ByBlock
  0
MATERIAL
  5
3C
102
{ACAD_REACTORS
330
3B
102
}
102
{ACAD_XDICTIONARY
360
28F
102
}
330
3B
100
AcDbMaterial
  1
ByLayer
  0
MATERIAL
  5
3E
102
{ACAD_REACTORS
330
3B
102
}
102
{ACAD_XDICTIONARY
360
293
102
}
330
3B
100
AcDbMaterial
  1
Global
  0
MLINESTYLE
  5
18
102
{ACAD_REACTORS
330
17
102
}
330
17
100
AcDbMlineStyle
  2
Standard
 70
     0
  3

 62
   256
 51
90.0
 52
90.0
 71
     2
 49
0.5
 62
   256
  6
BYLAYER
 49
-0.5
 62
   256
  6
BYLAYER
  0
ACDBPLACEHOLDER
  5
F
102
{ACAD_REACTORS
330
E
102
}
330
E
  0
VISUALSTYLE
  5
2F
102
{ACAD_REACTORS
330
2A
102
}
102
{ACAD_XDICTIONARY
360
277
102
}
330
2A
100
AcDbVisualStyle
  2
2dWireframe
 70
     4
 71
     0
 72
     2
 73
     0
 90
        0
 40
-0.6
 41
-30.0
 62
     5
 63
     7
421
 16777215
 74
     1
 91
        4
 64
     7
 65
   257
 75
     1
175
     1
 42
1.0
 92
        0
 66
   257
 43
1.0
 76
     1
 77
     6
 78
     2
 67
     7
 79
     5
170
     0
171
     0
290
     0
174
     0
 93
        1
 44
0.0
173
     0
291
     0
 45
0.0
1001
ACAD
1000
AcDbSavedByObjectVersion
1070
     0
  0
VISUALSTYLE
  5
31
102
{ACAD_REACTORS
330
2A
102
}
102
{ACAD_XDICTIONARY
360
27B
102
}
330
2A
100
AcDbVisualStyle
  2
3D Hidden
 70
     6
 71
     1
 72
     2
 73
     2
 90
        0
 40
-0.6
 41
-30.0
 62
     5
 63
     7
421
 16777215
 74
     2
 91
        2
 64
     7
 65
   257
 75
     2
175
     1
 42
40.0
 92
        0
 66
   257
 43
1.0
 76
     1
 77
     6
 78
     2
 67
     7
 79
     3
170
     0
171
     0
290
     0
174
     0
 93
        1
 44
0.0
173
     0
291
     0
 45
0.0
1001
ACAD
1000
AcDbSavedByObjectVersion
1070
     0
  0
VISUALSTYLE
  5
30
102
{ACAD_REACTORS
330
2A
102
}
102
{ACAD_XDICTIONARY
360
279
102
}
330
2A
100
AcDbVisualStyle
  2
3dWireframe
 70
     5
 71
     0
 72
     2
 73
     0
 90
        0
 40
-0.6
 41
-30.0
 62
     5
 63
     7
421
 16777215
 74
     1
 91
        4
 64
     7
 65
   257
 75
     1
175
     1
 42
1.0
 92
        0
 66
   257
 43
1.0
 76
     1
 77
     6
 78
     2
 67
     7
 79
     5
170
     0
171
     0
290
     0
174
     0
 93
        1
 44
0.0
173
     0
291
     0
 45
0.0
1001
ACAD
1000
AcDbSavedByObjectVersion
1070
     0
  0
VISUALSTYLE
  5
32
102
{ACAD_REACTORS
330
2A
102
}
102
{ACAD_XDICTIONARY
360
27D
102
}
330
2A
100
AcDbVisualStyle
  2
Basic
 70
     7
 71
     1
 72
     0
 73
     1
 90
        0
 40
-0.6
 41
-30.0
 62
     5
 63
     7
421
 16777215
 74
     0
 91
        4
 64
     7
 65
   257
 75
     1
175
     1
 42
1.0
 92
        8
 66
     7
 43
1.0
 76
     1
 77
     6
 78
     2
 67
     7
 79
     5
170
     0
171
     0
290
     0
174
     0
 93
        1
 44
0.0
173
     0
291
     1
 45
0.0
1001
ACAD
1000
AcDbSavedByObjectVersion
1070
     0
  0
VISUALSTYLE
  5
36
102
{ACAD_REACTORS
330
2A
102
}
102
{ACAD_XDICTIONARY
360
285
102
}
330
2A
100
AcDbVisualStyle
  2
Brighten
 70
    12
 71
     2
 72
     2
 73
     0
 90
        0
 40
-0.6
 41
-30.0
 62
     5
 63
     7
421
 16777215
 74
     1
 91
        4
 64
     7
 65
   257
 75
     1
175
     1
 42
1.0
 92
        8
 66
     7
 43
1.0
 76
     1
 77
     6
 78
     2
 67
     7
 79
     5
170
     0
171
     0
290
     0
174
     0
 93
        1
 44
50.0
173
     0
291
     1
 45
0.0
1001
ACAD
1000
AcDbSavedByObjectVersion
1070
     0
  0
VISUALSTYLE
  5
3A
102
{ACAD_REACTORS
330
2A
102
}
102
{ACAD_XDICTIONARY
360
28D
102
}
330
2A
100
AcDbVisualStyle
  2
ColorChange
 70
    16
 71
     2
 72
     2
 73
     3
 90
        0
 40
-0.6
 41
-30.0
 62
     5
 63
     8
421
  8421504
 74
     1
 91
        4
 64
     7
 65
   257
 75
     1
175
     1
 42
1.0
 92
        8
 66
     8
424
  8421504
 43
1.0
 76
     1
 77
     6
 78
     2
 67
     7
 79
     5
170
     0
171
     0
290
     0
174
     0
 93
        1
 44
0.0
173
     0
291
     1
 45
0.0
1001
ACAD
1000
AcDbSavedByObjectVersion
1070
     0
  0
VISUALSTYLE
  5
34
102
{ACAD_REACTORS
330
2A
102
}
102
{ACAD_XDICTIONARY
360
281
102
}
330
2A
100
AcDbVisualStyle
  2
Conceptual
 70
     9
 71
     3
 72
     2
 73
     0
 90
        0
 40
-0.6
 41
-30.0
 62
     5
 63
     7
421
 16777215
 74
     2
 91
        2
 64
     7
 65
   257
 75
     1
175
     1
 42
40.0
 92
        8
 66
     7
 43
1.0
 76
     1
 77
     6
 78
     2
 67
     7
 79
     3
170
     0
171
     0
290
     0
174
     0
 93
        1
 44
0.0
173
     0
291
     0
 45
0.0
1001
ACAD
1000
AcDbSavedByObjectVersion
1070
     0
  0
VISUALSTYLE
  5
35
102
{ACAD_REACTORS
330
2A
102
}
102
{ACAD_XDICTIONARY
360
283
102
}
330
2A
100
AcDbVisualStyle
  2
Dim
 70
    11
 71
     2
 72
     2
 73
     0
 90
        0
 40
-0.6
 41
-30.0
 62
     5
 63
     7
421
 16777215
 74
     1
 91
        4
 64
     7
 65
   257
 75
     1
175
     1
 42
1.0
 92
        8
 66
     7
 43
1.0
 76
     1
 77
     6
 78
     2
 67
     7
 79
     5
170
     0
171
     0
290
     0
174
     0
 93
        1
 44
-50.0
173
     0
291
     1
 45
0.0
1001
ACAD
1000
AcDbSavedByObjectVersion
1070
     0
  0
VISUALSTYLE
  5
39
102
{ACAD_REACTORS
330
2A
102
}
102
{ACAD_XDICTIONARY
360
28B
102
}
330
2A
100
AcDbVisualStyle
  2
Facepattern
 70
    15
 71
     2
 72
     2
 73
     0
 90
        0
 40
-0.6
 41
-30.0
 62
     5
 63
     7
421
 16777215
 74
     1
 91
        4
 64
     7
 65
   257
 75
     1
175
     1
 42
1.0
 92
        8
 66
     7
 43
1.0
 76
     1
 77
     6
 78
     2
 67
     7
 79
     5
170
     0
171
     0
290
     0
174
     0
 93
        1
 44
0.0
173
     0
291
     1
 45
0.0
1001
ACAD
1000
AcDbSavedByObjectVersion
1070
     0
  0
VISUALSTYLE
  5
2B
102
{ACAD_REACTORS
330
2A
102
}
102
{ACAD_XDICTIONARY
360
26F
102
}
330
2A
100
AcDbVisualStyle
  2
Flat
 70
     0
 71
     2
 72
     1
 73
     1
 90
        2
 40
-0.6
 41
30.0
 62
     5
 63
     7
421
 16777215
 74
     0
 91
        4
 64
     7
 65
   257
 75
     1
175
     1
 42
1.0
 92
        8
 66
     7
 43
1.0
 76
     1
 77
     6
 78
     2
 67
     7
 79
     5
170
     0
171
     0
290
     0
174
     0
 93
       13
 44
0.0
173
     0
291
     1
 45
0.0
1001
ACAD
1000
AcDbSavedByObjectVersion
1070
     0
  0
VISUALSTYLE
  5
2C
102
{ACAD_REACTORS
330
2A
102
}
102
{ACAD_XDICTIONARY
360
271
102
}
330
2A
100
AcDbVisualStyle
  2
FlatWithEdges
 70
     1
 71
     2
 72
     1
 73
     1
 90
        2
 40
-0.6
 41
30.0
 62
     5
 63
     7
421
 16777215
 74
     1
 91
        4
 64
     7
 65
   257
 75
     1
175
     1
 42
1.0
 92
        0
 66
   257
 43
1.0
 76
     1
 77
     6
 78
     2
 67
     7
 79
     5
170
     0
171
     0
290
     0
174
     0
 93
       13
 44
0.0
173
     0
291
     1
 45
0.0
1001
ACAD
1000
AcDbSavedByObjectVersion
1070
     0
  0
VISUALSTYLE
  5
2D
102
{ACAD_REACTORS
330
2A
102
}
102
{ACAD_XDICTIONARY
360
273
102
}
330
2A
100
AcDbVisualStyle
  2
Gouraud
 70
     2
 71
     2
 72
     2
 73
     1
 90
        2
 40
-0.6
 41
30.0
 62
     5
 63
     7
421
 16777215
 74
     0
 91
        4
 64
     7
 65
   257
 75
     1
175
     1
 42
1.0
 92
        0
 66
     7
 43
1.0
 76
     1
 77
     6
 78
     2
 67
     7
 79
     5
170
     0
171
     0
290
     0
174
     0
 93
       13
 44
0.0
173
     0
291
     1
 45
0.0
1001
ACAD
1000
AcDbSavedByObjectVersion
1070
     0
  0
VISUALSTYLE
  5
2E
102
{ACAD_REACTORS
330
2A
102
}
102
{ACAD_XDICTIONARY
360
275
102
}
330
2A
100
AcDbVisualStyle
  2
GouraudWithEdges
 70
     3
 71
     2
 72
     2
 73
     1
 90
        2
 40
-0.6
 41
30.0
 62
     5
 63
     7
421
 16777215
 74
     1
 91
        4
 64
     7
 65
   257
 75
     1
175
     1
 42
1.0
 92
        0
 66
   257
 43
1.0
 76
     1
 77
     6
 78
     2
 67
     7
 79
     5
170
     0
171
     0
290
     0
174
     0
 93
       13
 44
0.0
173
     0
291
     1
 45
0.0
1001
ACAD
1000
AcDbSavedByObjectVersion
1070
     0
  0
VISUALSTYLE
  5
38
102
{ACAD_REACTORS
330
2A
102
}
102
{ACAD_XDICTIONARY
360
289
102
}
330
2A
100
AcDbVisualStyle
  2
Linepattern
 70
    14
 71
     2
 72
     2
 73
     0
 90
        0
 40
-0.6
 41
-30.0
 62
     5
 63
     7
421
 16777215
 74
     1
 91
        4
 64
     7
 65
   257
 75
     7
175
     7
 42
1.0
 92
        8
 66
     7
 43
1.0
 76
     1
 77
     6
 78
     2
 67
     7
 79
     5
170
     0
171
     0
290
     0
174
     0
 93
        1
 44
0.0
173
     0
291
     1
 45
0.0
1001
ACAD
1000
AcDbSavedByObjectVersion
1070
     0
  0
VISUALSTYLE
  5
33
102
{ACAD_REACTORS
330
2A
102
}
102
{ACAD_XDICTIONARY
360
27F
102
}
330
2A
100
AcDbVisualStyle
  2
Realistic
 70
     8
 71
     2
 72
     2
 73
     0
 90
        0
 40
-0.6
 41
-30.0
 62
     5
 63
     7
421
 16777215
 74
     1
 91
        0
 64
     7
 65
   257
 75
     1
175
     1
 42
1.0
 92
        8
 66
     8
424
  7895160
 43
1.0
 76
     1
 77
     6
 78
     2
 67
     7
 79
     5
170
     0
171
     0
290
     0
174
     0
 93
       13
 44
0.0
173
     0
291
     0
 45
0.0
1001
ACAD
1000
AcDbSavedByObjectVersion
1070
     0
  0
VISUALSTYLE
  5
37
102
{ACAD_REACTORS
330
2A
102
}
102
{ACAD_XDICTIONARY
360
287
102
}
330
2A
100
AcDbVisualStyle
  2
Thicken
 70
    13
 71
     2
 72
     2
 73
     0
 90
        0
 40
-0.6
 41
-30.0
 62
     5
 63
     7
421
 16777215
 74
     1
 91
        4
 64
     7
 65
   257
 75
     1
175
     1
 42
1.0
 92
       12
 66
     7
 43
1.0
 76
     1
 77
     6
 78
     2
 67
     7
 79
     5
170
     0
171
     0
290
     0
174
     0
 93
        1
 44
0.0
173
     0
291
     1
 45
0.0
1001
ACAD
1000
AcDbSavedByObjectVersion
1070
     0
  0
DICTIONARY
  5
291
330
3D
100
AcDbDictionary
280
     1
281
     1
  3
ACAD_XREC_ROUNDTRIP
360
292
  0
DICTIONARY
  5
28F
330
3C
100
AcDbDictionary
280
     1
281
     1
  3
ACAD_XREC_ROUNDTRIP
360
290
  0
DICTIONARY
  5
293
330
3E
100
AcDbDictionary
280
     1
281
     1
  3
ACAD_XREC_ROUNDTRIP
360
294
  0
DICTIONARY
  5
277
330
2F
100
AcDbDictionary
280
     1
281
     1
  3
ACAD_XREC_ROUNDTRIP
360
278
  0
DICTIONARY
  5
27B
330
31
100
AcDbDictionary
280
     1
281
     1
  3
ACAD_XREC_ROUNDTRIP
360
27C
  0
DICTIONARY
  5
279
330
30
100
AcDbDictionary
280
     1
281
     1
  3
ACAD_XREC_ROUNDTRIP
360
27A
  0
DICTIONARY
  5
27D
330
32
100
AcDbDictionary
280
     1
281
     1
  3
ACAD_XREC_ROUNDTRIP
360
27E
  0
DICTIONARY
  5
285
330
36
100
AcDbDictionary
280
     1
281
     1
  3
ACAD_XREC_ROUNDTRIP
360
286
  0
DICTIONARY
  5
28D
330
3A
100
AcDbDictionary
280
     1
281
     1
  3
ACAD_XREC_ROUNDTRIP
360
28E
  0
DICTIONARY
  5
281
330
34
100
AcDbDictionary
280
     1
281
     1
  3
ACAD_XREC_ROUNDTRIP
360
282
  0
DICTIONARY
  5
283
330
35
100
AcDbDictionary
280
     1
281
     1
  3
ACAD_XREC_ROUNDTRIP
360
284
  0
DICTIONARY
  5
28B
330
39
100
AcDbDictionary
280
     1
281
     1
  3
ACAD_XREC_ROUNDTRIP
360
28C
  0
DICTIONARY
  5
26F
330
2B
100
AcDbDictionary
280
     1
281
     1
  3
ACAD_XREC_ROUNDTRIP
360
270
  0
DICTIONARY
  5
271
330
2C
100
AcDbDictionary
280
     1
281
     1
  3
ACAD_XREC_ROUNDTRIP
360
272
  0
DICTIONARY
  5
273
330
2D
100
AcDbDictionary
280
     1
281
     1
  3
ACAD_XREC_ROUNDTRIP
360
274
  0
DICTIONARY
  5
275
330
2E
100
AcDbDictionary
280
     1
281
     1
  3
ACAD_XREC_ROUNDTRIP
360
276
  0
DICTIONARY
  5
289
330
38
100
AcDbDictionary
280
     1
281
     1
  3
ACAD_XREC_ROUNDTRIP
360
28A
  0
DICTIONARY
  5
27F
330
33
100
AcDbDictionary
280
     1
281
     1
  3
ACAD_XREC_ROUNDTRIP
360
280
  0
DICTIONARY
  5
287
330
37
100
AcDbDictionary
280
     1
281
     1
  3
ACAD_XREC_ROUNDTRIP
360
288
  0
XRECORD
  5
292
102
{ACAD_REACTORS
330
291
102
}
330
291
100
AcDbXrecord
280
     1
102
MATERIAL
148
0.0
149
0.0
149
0.0
 93
        0
 94
      127
282
     0
 72
     1
 77
     1
171
     1
175
     1
179
     1
273
     0
  0
XRECORD
  5
290
102
{ACAD_REACTORS
330
28F
102
}
330
28F
100
AcDbXrecord
280
     1
102
MATERIAL
148
0.0
149
0.0
149
0.0
 93
        0
 94
      127
282
     0
 72
     1
 77
     1
171
     1
175
     1
179
     1
273
     0
  0
XRECORD
  5
294
102
{ACAD_REACTORS
330
293
102
}
330
293
100
AcDbXrecord
280
     1
102
MATERIAL
148
0.0
149
0.0
149
0.0
 93
        0
 94
      127
282
     0
 72
     1
 77
     1
171
     1
175
     1
179
     1
273
     0
  0
XRECORD
  5
278
102
{ACAD_REACTORS
330
277
102
}
330
277
100
AcDbXrecord
280
     1
102
RTVSPropertyOp0
 70
     1
102
RTVSPropertyOp1
 70
     1
102
RTVSPropertyOp2
 70
     1
102
RTVSPropertyOp3
 70
     1
102
RTVSPropertyOp4
 70
     1
102
RTVSPropertyOp5
 70
     1
102
RTVSPropertyOp6
 70
     1
102
RTVSPropertyOp7
 70
     1
102
RTVSPropertyOp8
 70
     1
102
RTVSPropertyOp9
 70
     1
102
RTVSPropertyOp10
 70
     1
102
RTVSPropertyOp11
 70
     1
102
RTVSPropertyOp12
 70
     1
102
RTVSPropertyOp13
 70
     1
102
RTVSPropertyOp14
 70
     1
102
RTVSPropertyOp15
 70
     1
102
RTVSPropertyOp16
 70
     1
102
RTVSPropertyOp17
 70
     1
102
RTVSPropertyOp18
 70
     1
102
RTVSPropertyOp19
 70
     1
102
RTVSPropertyOp20
 70
     1
102
RTVSPropertyOp21
 70
     1
102
RTVSPropertyOp22
 70
     1
102
RTVSPropertyOp23
 70
     1
102
RTVSPropertyOp24
 70
     1
102
RTVSPropertyOp25
 70
     1
102
RTVSPropertyOp26
 70
     1
102
RTVSPropertyOp27
 70
     1
102
RTVSPropertyOp28
 70
     1
102
RTVSPropertyOp29
 70
     1
102
RTVSPropertyOp30
 70
     1
102
RTVSPropertyOp31
 70
     1
102
RTVSPropertyOp32
 70
     1
  0
XRECORD
  5
27C
102
{ACAD_REACTORS
330
27B
102
}
330
27B
100
AcDbXrecord
280
     1
102
RTVSPropertyOp0
 70
     1
102
RTVSPropertyOp1
 70
     1
102
RTVSPropertyOp2
 70
     1
102
RTVSPropertyOp3
 70
     1
102
RTVSPropertyOp4
 70
     1
102
RTVSPropertyOp5
 70
     1
102
RTVSPropertyOp6
 70
     1
102
RTVSPropertyOp7
 70
     1
102
RTVSPropertyOp8
 70
     1
102
RTVSPropertyOp9
 70
     1
102
RTVSPropertyOp10
 70
     1
102
RTVSPropertyOp11
 70
     1
102
RTVSPropertyOp12
 70
     1
102
RTVSPropertyOp13
 70
     1
102
RTVSPropertyOp14
 70
     1
102
RTVSPropertyOp15
 70
     1
102
RTVSPropertyOp16
 70
     1
102
RTVSPropertyOp17
 70
     1
102
RTVSPropertyOp18
 70
     1
102
RTVSPropertyOp19
 70
     1
102
RTVSPropertyOp20
 70
     1
102
RTVSPropertyOp21
 70
     1
102
RTVSPropertyOp22
 70
     1
102
RTVSPropertyOp23
 70
     1
102
RTVSPropertyOp24
 70
     1
102
RTVSPropertyOp25
 70
     1
102
RTVSPropertyOp26
 70
     1
102
RTVSPropertyOp27
 70
     1
102
RTVSPropertyOp28
 70
     1
102
RTVSPropertyOp29
 70
     1
102
RTVSPropertyOp30
 70
     1
102
RTVSPropertyOp31
 70
     1
102
RTVSPropertyOp32
 70
     1
  0
XRECORD
  5
27A
102
{ACAD_REACTORS
330
279
102
}
330
279
100
AcDbXrecord
280
     1
102
RTVSPropertyOp0
 70
     1
102
RTVSPropertyOp1
 70
     1
102
RTVSPropertyOp2
 70
     1
102
RTVSPropertyOp3
 70
     1
102
RTVSPropertyOp4
 70
     1
102
RTVSPropertyOp5
 70
     1
102
RTVSPropertyOp6
 70
     1
102
RTVSPropertyOp7
 70
     1
102
RTVSPropertyOp8
 70
     1
102
RTVSPropertyOp9
 70
     1
102
RTVSPropertyOp10
 70
     1
102
RTVSPropertyOp11
 70
     1
102
RTVSPropertyOp12
 70
     1
102
RTVSPropertyOp13
 70
     1
102
RTVSPropertyOp14
 70
     1
102
RTVSPropertyOp15
 70
     1
102
RTVSPropertyOp16
 70
     1
102
RTVSPropertyOp17
 70
     1
102
RTVSPropertyOp18
 70
     1
102
RTVSPropertyOp19
 70
     1
102
RTVSPropertyOp20
 70
     1
102
RTVSPropertyOp21
 70
     1
102
RTVSPropertyOp22
 70
     1
102
RTVSPropertyOp23
 70
     1
102
RTVSPropertyOp24
 70
     1
102
RTVSPropertyOp25
 70
     1
102
RTVSPropertyOp26
 70
     1
102
RTVSPropertyOp27
 70
     1
102
RTVSPropertyOp28
 70
     1
102
RTVSPropertyOp29
 70
     1
102
RTVSPropertyOp30
 70
     1
102
RTVSPropertyOp31
 70
     1
102
RTVSPropertyOp32
 70
     1
  0
XRECORD
  5
27E
102
{ACAD_REACTORS
330
27D
102
}
330
27D
100
AcDbXrecord
280
     1
102
RTVSPropertyOp0
 70
     1
102
RTVSPropertyOp1
 70
     1
102
RTVSPropertyOp2
 70
     1
102
RTVSPropertyOp3
 70
     1
102
RTVSPropertyOp4
 70
     1
102
RTVSPropertyOp5
 70
     1
102
RTVSPropertyOp6
 70
     1
102
RTVSPropertyOp7
 70
     1
102
RTVSPropertyOp8
 70
     1
102
RTVSPropertyOp9
 70
     1
102
RTVSPropertyOp10
 70
     1
102
RTVSPropertyOp11
 70
     1
102
RTVSPropertyOp12
 70
     1
102
RTVSPropertyOp13
 70
     1
102
RTVSPropertyOp14
 70
     1
102
RTVSPropertyOp15
 70
     1
102
RTVSPropertyOp16
 70
     1
102
RTVSPropertyOp17
 70
     1
102
RTVSPropertyOp18
 70
     1
102
RTVSPropertyOp19
 70
     1
102
RTVSPropertyOp20
 70
     1
102
RTVSPropertyOp21
 70
     1
102
RTVSPropertyOp22
 70
     1
102
RTVSPropertyOp23
 70
     1
102
RTVSPropertyOp24
 70
     1
102
RTVSPropertyOp25
 70
     1
102
RTVSPropertyOp26
 70
     1
102
RTVSPropertyOp27
 70
     1
102
RTVSPropertyOp28
 70
     1
102
RTVSPropertyOp29
 70
     1
102
RTVSPropertyOp30
 70
     1
102
RTVSPropertyOp31
 70
     1
102
RTVSPropertyOp32
 70
     1
  0
XRECORD
  5
286
102
{ACAD_REACTORS
330
285
102
}
330
285
100
AcDbXrecord
280
     1
102
RTVSPropertyOp0
 70
     1
102
RTVSPropertyOp1
 70
     1
102
RTVSPropertyOp2
 70
     1
102
RTVSPropertyOp3
 70
     1
102
RTVSPropertyOp4
 70
     1
102
RTVSPropertyOp5
 70
     1
102
RTVSPropertyOp6
 70
     1
102
RTVSPropertyOp7
 70
     1
102
RTVSPropertyOp8
 70
     1
102
RTVSPropertyOp9
 70
     1
102
RTVSPropertyOp10
 70
     1
102
RTVSPropertyOp11
 70
     1
102
RTVSPropertyOp12
 70
     1
102
RTVSPropertyOp13
 70
     1
102
RTVSPropertyOp14
 70
     1
102
RTVSPropertyOp15
 70
     1
102
RTVSPropertyOp16
 70
     1
102
RTVSPropertyOp17
 70
     1
102
RTVSPropertyOp18
 70
     1
102
RTVSPropertyOp19
 70
     1
102
RTVSPropertyOp20
 70
     1
102
RTVSPropertyOp21
 70
     1
102
RTVSPropertyOp22
 70
     1
102
RTVSPropertyOp23
 70
     1
102
RTVSPropertyOp24
 70
     1
102
RTVSPropertyOp25
 70
     1
102
RTVSPropertyOp26
 70
     1
102
RTVSPropertyOp27
 70
     1
102
RTVSPropertyOp28
 70
     1
102
RTVSPropertyOp29
 70
     1
102
RTVSPropertyOp30
 70
     1
102
RTVSPropertyOp31
 70
     1
102
RTVSPropertyOp32
 70
     1
  0
XRECORD
  5
28E
102
{ACAD_REACTORS
330
28D
102
}
330
28D
100
AcDbXrecord
280
     1
102
RTVSPropertyOp0
 70
     1
102
RTVSPropertyOp1
 70
     1
102
RTVSPropertyOp2
 70
     1
102
RTVSPropertyOp3
 70
     1
102
RTVSPropertyOp4
 70
     1
102
RTVSPropertyOp5
 70
     1
102
RTVSPropertyOp6
 70
     1
102
RTVSPropertyOp7
 70
     1
102
RTVSPropertyOp8
 70
     1
102
RTVSPropertyOp9
 70
     1
102
RTVSPropertyOp10
 70
     1
102
RTVSPropertyOp11
 70
     1
102
RTVSPropertyOp12
 70
     1
102
RTVSPropertyOp13
 70
     1
102
RTVSPropertyOp14
 70
     1
102
RTVSPropertyOp15
 70
     1
102
RTVSPropertyOp16
 70
     1
102
RTVSPropertyOp17
 70
     1
102
RTVSPropertyOp18
 70
     1
102
RTVSPropertyOp19
 70
     1
102
RTVSPropertyOp20
 70
     1
102
RTVSPropertyOp21
 70
     1
102
RTVSPropertyOp22
 70
     1
102
RTVSPropertyOp23
 70
     1
102
RTVSPropertyOp24
 70
     1
102
RTVSPropertyOp25
 70
     1
102
RTVSPropertyOp26
 70
     1
102
RTVSPropertyOp27
 70
     1
102
RTVSPropertyOp28
 70
     1
102
RTVSPropertyOp29
 70
     1
102
RTVSPropertyOp30
 70
     1
102
RTVSPropertyOp31
 70
     1
102
RTVSPropertyOp32
 70
     1
  0
XRECORD
  5
282
102
{ACAD_REACTORS
330
281
102
}
330
281
100
AcDbXrecord
280
     1
102
RTVSPropertyOp0
 70
     1
102
RTVSPropertyOp1
 70
     1
102
RTVSPropertyOp2
 70
     1
102
RTVSPropertyOp3
 70
     1
102
RTVSPropertyOp4
 70
     1
102
RTVSPropertyOp5
 70
     1
102
RTVSPropertyOp6
 70
     1
102
RTVSPropertyOp7
 70
     1
102
RTVSPropertyOp8
 70
     1
102
RTVSPropertyOp9
 70
     1
102
RTVSPropertyOp10
 70
     1
102
RTVSPropertyOp11
 70
     1
102
RTVSPropertyOp12
 70
     1
102
RTVSPropertyOp13
 70
     1
102
RTVSPropertyOp14
 70
     1
102
RTVSPropertyOp15
 70
     1
102
RTVSPropertyOp16
 70
     1
102
RTVSPropertyOp17
 70
     1
102
RTVSPropertyOp18
 70
     1
102
RTVSPropertyOp19
 70
     1
102
RTVSPropertyOp20
 70
     1
102
RTVSPropertyOp21
 70
     1
102
RTVSPropertyOp22
 70
     1
102
RTVSPropertyOp23
 70
     1
102
RTVSPropertyOp24
 70
     1
102
RTVSPropertyOp25
 70
     1
102
RTVSPropertyOp26
 70
     1
102
RTVSPropertyOp27
 70
     1
102
RTVSPropertyOp28
 70
     1
102
RTVSPropertyOp29
 70
     1
102
RTVSPropertyOp30
 70
     1
102
RTVSPropertyOp31
 70
     1
102
RTVSPropertyOp32
 70
     1
  0
XRECORD
  5
284
102
{ACAD_REACTORS
330
283
102
}
330
283
100
AcDbXrecord
280
     1
102
RTVSPropertyOp0
 70
     1
102
RTVSPropertyOp1
 70
     1
102
RTVSPropertyOp2
 70
     1
102
RTVSPropertyOp3
 70
     1
102
RTVSPropertyOp4
 70
     1
102
RTVSPropertyOp5
 70
     1
102
RTVSPropertyOp6
 70
     1
102
RTVSPropertyOp7
 70
     1
102
RTVSPropertyOp8
 70
     1
102
RTVSPropertyOp9
 70
     1
102
RTVSPropertyOp10
 70
     1
102
RTVSPropertyOp11
 70
     1
102
RTVSPropertyOp12
 70
     1
102
RTVSPropertyOp13
 70
     1
102
RTVSPropertyOp14
 70
     1
102
RTVSPropertyOp15
 70
     1
102
RTVSPropertyOp16
 70
     1
102
RTVSPropertyOp17
 70
     1
102
RTVSPropertyOp18
 70
     1
102
RTVSPropertyOp19
 70
     1
102
RTVSPropertyOp20
 70
     1
102
RTVSPropertyOp21
 70
     1
102
RTVSPropertyOp22
 70
     1
102
RTVSPropertyOp23
 70
     1
102
RTVSPropertyOp24
 70
     1
102
RTVSPropertyOp25
 70
     1
102
RTVSPropertyOp26
 70
     1
102
RTVSPropertyOp27
 70
     1
102
RTVSPropertyOp28
 70
     1
102
RTVSPropertyOp29
 70
     1
102
RTVSPropertyOp30
 70
     1
102
RTVSPropertyOp31
 70
     1
102
RTVSPropertyOp32
 70
     1
  0
XRECORD
  5
28C
102
{ACAD_REACTORS
330
28B
102
}
330
28B
100
AcDbXrecord
280
     1
102
RTVSPropertyOp0
 70
     1
102
RTVSPropertyOp1
 70
     1
102
RTVSPropertyOp2
 70
     1
102
RTVSPropertyOp3
 70
     1
102
RTVSPropertyOp4
 70
     1
102
RTVSPropertyOp5
 70
     1
102
RTVSPropertyOp6
 70
     1
102
RTVSPropertyOp7
 70
     1
102
RTVSPropertyOp8
 70
     1
102
RTVSPropertyOp9
 70
     1
102
RTVSPropertyOp10
 70
     1
102
RTVSPropertyOp11
 70
     1
102
RTVSPropertyOp12
 70
     1
102
RTVSPropertyOp13
 70
     1
102
RTVSPropertyOp14
 70
     1
102
RTVSPropertyOp15
 70
     1
102
RTVSPropertyOp16
 70
     1
102
RTVSPropertyOp17
 70
     1
102
RTVSPropertyOp18
 70
     1
102
RTVSPropertyOp19
 70
     1
102
RTVSPropertyOp20
 70
     1
102
RTVSPropertyOp21
 70
     1
102
RTVSPropertyOp22
 70
     1
102
RTVSPropertyOp23
 70
     1
102
RTVSPropertyOp24
 70
     1
102
RTVSPropertyOp25
 70
     1
102
RTVSPropertyOp26
 70
     1
102
RTVSPropertyOp27
 70
     1
102
RTVSPropertyOp28
 70
     1
102
RTVSPropertyOp29
 70
     1
102
RTVSPropertyOp30
 70
     1
102
RTVSPropertyOp31
 70
     1
102
RTVSPropertyOp32
 70
     1
  0
XRECORD
  5
270
102
{ACAD_REACTORS
330
26F
102
}
330
26F
100
AcDbXrecord
280
     1
102
RTVSPropertyOp0
 70
     1
102
RTVSPropertyOp1
 70
     1
102
RTVSPropertyOp2
 70
     1
102
RTVSPropertyOp3
 70
     1
102
RTVSPropertyOp4
 70
     1
102
RTVSPropertyOp5
 70
     1
102
RTVSPropertyOp6
 70
     1
102
RTVSPropertyOp7
 70
     1
102
RTVSPropertyOp8
 70
     1
102
RTVSPropertyOp9
 70
     1
102
RTVSPropertyOp10
 70
     1
102
RTVSPropertyOp11
 70
     1
102
RTVSPropertyOp12
 70
     1
102
RTVSPropertyOp13
 70
     1
102
RTVSPropertyOp14
 70
     1
102
RTVSPropertyOp15
 70
     1
102
RTVSPropertyOp16
 70
     1
102
RTVSPropertyOp17
 70
     1
102
RTVSPropertyOp18
 70
     1
102
RTVSPropertyOp19
 70
     1
102
RTVSPropertyOp20
 70
     1
102
RTVSPropertyOp21
 70
     1
102
RTVSPropertyOp22
 70
     1
102
RTVSPropertyOp23
 70
     1
102
RTVSPropertyOp24
 70
     1
102
RTVSPropertyOp25
 70
     1
102
RTVSPropertyOp26
 70
     1
102
RTVSPropertyOp27
 70
     1
102
RTVSPropertyOp28
 70
     1
102
RTVSPropertyOp29
 70
     1
102
RTVSPropertyOp30
 70
     1
102
RTVSPropertyOp31
 70
     1
102
RTVSPropertyOp32
 70
     1
  0
XRECORD
  5
272
102
{ACAD_REACTORS
330
271
102
}
330
271
100
AcDbXrecord
280
     1
102
RTVSPropertyOp0
 70
     1
102
RTVSPropertyOp1
 70
     1
102
RTVSPropertyOp2
 70
     1
102
RTVSPropertyOp3
 70
     1
102
RTVSPropertyOp4
 70
     1
102
RTVSPropertyOp5
 70
     1
102
RTVSPropertyOp6
 70
     1
102
RTVSPropertyOp7
 70
     1
102
RTVSPropertyOp8
 70
     1
102
RTVSPropertyOp9
 70
     1
102
RTVSPropertyOp10
 70
     1
102
RTVSPropertyOp11
 70
     1
102
RTVSPropertyOp12
 70
     1
102
RTVSPropertyOp13
 70
     1
102
RTVSPropertyOp14
 70
     1
102
RTVSPropertyOp15
 70
     1
102
RTVSPropertyOp16
 70
     1
102
RTVSPropertyOp17
 70
     1
102
RTVSPropertyOp18
 70
     1
102
RTVSPropertyOp19
 70
     1
102
RTVSPropertyOp20
 70
     1
102
RTVSPropertyOp21
 70
     1
102
RTVSPropertyOp22
 70
     1
102
RTVSPropertyOp23
 70
     1
102
RTVSPropertyOp24
 70
     1
102
RTVSPropertyOp25
 70
     1
102
RTVSPropertyOp26
 70
     1
102
RTVSPropertyOp27
 70
     1
102
RTVSPropertyOp28
 70
     1
102
RTVSPropertyOp29
 70
     1
102
RTVSPropertyOp30
 70
     1
102
RTVSPropertyOp31
 70
     1
102
RTVSPropertyOp32
 70
     1
  0
XRECORD
  5
274
102
{ACAD_REACTORS
330
273
102
}
330
273
100
AcDbXrecord
280
     1
102
RTVSPropertyOp0
 70
     1
102
RTVSPropertyOp1
 70
     1
102
RTVSPropertyOp2
 70
     1
102
RTVSPropertyOp3
 70
     1
102
RTVSPropertyOp4
 70
     1
102
RTVSPropertyOp5
 70
     1
102
RTVSPropertyOp6
 70
     1
102
RTVSPropertyOp7
 70
     1
102
RTVSPropertyOp8
 70
     1
102
RTVSPropertyOp9
 70
     1
102
RTVSPropertyOp10
 70
     1
102
RTVSPropertyOp11
 70
     1
102
RTVSPropertyOp12
 70
     1
102
RTVSPropertyOp13
 70
     1
102
RTVSPropertyOp14
 70
     1
102
RTVSPropertyOp15
 70
     1
102
RTVSPropertyOp16
 70
     1
102
RTVSPropertyOp17
 70
     1
102
RTVSPropertyOp18
 70
     1
102
RTVSPropertyOp19
 70
     1
102
RTVSPropertyOp20
 70
     1
102
RTVSPropertyOp21
 70
     1
102
RTVSPropertyOp22
 70
     1
102
RTVSPropertyOp23
 70
     1
102
RTVSPropertyOp24
 70
     1
102
RTVSPropertyOp25
 70
     1
102
RTVSPropertyOp26
 70
     1
102
RTVSPropertyOp27
 70
     1
102
RTVSPropertyOp28
 70
     1
102
RTVSPropertyOp29
 70
     1
102
RTVSPropertyOp30
 70
     1
102
RTVSPropertyOp31
 70
     1
102
RTVSPropertyOp32
 70
     1
  0
XRECORD
  5
276
102
{ACAD_REACTORS
330
275
102
}
330
275
100
AcDbXrecord
280
     1
102
RTVSPropertyOp0
 70
     1
102
RTVSPropertyOp1
 70
     1
102
RTVSPropertyOp2
 70
     1
102
RTVSPropertyOp3
 70
     1
102
RTVSPropertyOp4
 70
     1
102
RTVSPropertyOp5
 70
     1
102
RTVSPropertyOp6
 70
     1
102
RTVSPropertyOp7
 70
     1
102
RTVSPropertyOp8
 70
     1
102
RTVSPropertyOp9
 70
     1
102
RTVSPropertyOp10
 70
     1
102
RTVSPropertyOp11
 70
     1
102
RTVSPropertyOp12
 70
     1
102
RTVSPropertyOp13
 70
     1
102
RTVSPropertyOp14
 70
     1
102
RTVSPropertyOp15
 70
     1
102
RTVSPropertyOp16
 70
     1
102
RTVSPropertyOp17
 70
     1
102
RTVSPropertyOp18
 70
     1
102
RTVSPropertyOp19
 70
     1
102
RTVSPropertyOp20
 70
     1
102
RTVSPropertyOp21
 70
     1
102
RTVSPropertyOp22
 70
     1
102
RTVSPropertyOp23
 70
     1
102
RTVSPropertyOp24
 70
     1
102
RTVSPropertyOp25
 70
     1
102
RTVSPropertyOp26
 70
     1
102
RTVSPropertyOp27
 70
     1
102
RTVSPropertyOp28
 70
     1
102
RTVSPropertyOp29
 70
     1
102
RTVSPropertyOp30
 70
     1
102
RTVSPropertyOp31
 70
     1
102
RTVSPropertyOp32
 70
     1
  0
XRECORD
  5
28A
102
{ACAD_REACTORS
330
289
102
}
330
289
100
AcDbXrecord
280
     1
102
RTVSPropertyOp0
 70
     1
102
RTVSPropertyOp1
 70
     1
102
RTVSPropertyOp2
 70
     1
102
RTVSPropertyOp3
 70
     1
102
RTVSPropertyOp4
 70
     1
102
RTVSPropertyOp5
 70
     1
102
RTVSPropertyOp6
 70
     1
102
RTVSPropertyOp7
 70
     1
102
RTVSPropertyOp8
 70
     1
102
RTVSPropertyOp9
 70
     1
102
RTVSPropertyOp10
 70
     1
102
RTVSPropertyOp11
 70
     1
102
RTVSPropertyOp12
 70
     1
102
RTVSPropertyOp13
 70
     1
102
RTVSPropertyOp14
 70
     1
102
RTVSPropertyOp15
 70
     1
102
RTVSPropertyOp16
 70
     1
102
RTVSPropertyOp17
 70
     1
102
RTVSPropertyOp18
 70
     1
102
RTVSPropertyOp19
 70
     1
102
RTVSPropertyOp20
 70
     1
102
RTVSPropertyOp21
 70
     1
102
RTVSPropertyOp22
 70
     1
102
RTVSPropertyOp23
 70
     1
102
RTVSPropertyOp24
 70
     1
102
RTVSPropertyOp25
 70
     1
102
RTVSPropertyOp26
 70
     1
102
RTVSPropertyOp27
 70
     1
102
RTVSPropertyOp28
 70
     1
102
RTVSPropertyOp29
 70
     1
102
RTVSPropertyOp30
 70
     1
102
RTVSPropertyOp31
 70
     1
102
RTVSPropertyOp32
 70
     1
  0
XRECORD
  5
280
102
{ACAD_REACTORS
330
27F
102
}
330
27F
100
AcDbXrecord
280
     1
102
RTVSPropertyOp0
 70
     1
102
RTVSPropertyOp1
 70
     1
102
RTVSPropertyOp2
 70
     1
102
RTVSPropertyOp3
 70
     1
102
RTVSPropertyOp4
 70
     1
102
RTVSPropertyOp5
 70
     1
102
RTVSPropertyOp6
 70
     1
102
RTVSPropertyOp7
 70
     1
102
RTVSPropertyOp8
 70
     1
102
RTVSPropertyOp9
 70
     1
102
RTVSPropertyOp10
 70
     1
102
RTVSPropertyOp11
 70
     1
102
RTVSPropertyOp12
 70
     1
102
RTVSPropertyOp13
 70
     1
102
RTVSPropertyOp14
 70
     1
102
RTVSPropertyOp15
 70
     1
102
RTVSPropertyOp16
 70
     1
102
RTVSPropertyOp17
 70
     1
102
RTVSPropertyOp18
 70
     1
102
RTVSPropertyOp19
 70
     1
102
RTVSPropertyOp20
 70
     1
102
RTVSPropertyOp21
 70
     1
102
RTVSPropertyOp22
 70
     1
102
RTVSPropertyOp23
 70
     1
102
RTVSPropertyOp24
 70
     1
102
RTVSPropertyOp25
 70
     1
102
RTVSPropertyOp26
 70
     1
102
RTVSPropertyOp27
 70
     1
102
RTVSPropertyOp28
 70
     1
102
RTVSPropertyOp29
 70
     1
102
RTVSPropertyOp30
 70
     1
102
RTVSPropertyOp31
 70
     1
102
RTVSPropertyOp32
 70
     1
  0
XRECORD
  5
288
102
{ACAD_REACTORS
330
287
102
}
330
287
100
AcDbXrecord
280
     1
102
RTVSPropertyOp0
 70
     1
102
RTVSPropertyOp1
 70
     1
102
RTVSPropertyOp2
 70
     1
102
RTVSPropertyOp3
 70
     1
102
RTVSPropertyOp4
 70
     1
102
RTVSPropertyOp5
 70
     1
102
RTVSPropertyOp6
 70
     1
102
RTVSPropertyOp7
 70
     1
102
RTVSPropertyOp8
 70
     1
102
RTVSPropertyOp9
 70
     1
102
RTVSPropertyOp10
 70
     1
102
RTVSPropertyOp11
 70
     1
102
RTVSPropertyOp12
 70
     1
102
RTVSPropertyOp13
 70
     1
102
RTVSPropertyOp14
 70
     1
102
RTVSPropertyOp15
 70
     1
102
RTVSPropertyOp16
 70
     1
102
RTVSPropertyOp17
 70
     1
102
RTVSPropertyOp18
 70
     1
102
RTVSPropertyOp19
 70
     1
102
RTVSPropertyOp20
 70
     1
102
RTVSPropertyOp21
 70
     1
102
RTVSPropertyOp22
 70
     1
102
RTVSPropertyOp23
 70
     1
102
RTVSPropertyOp24
 70
     1
102
RTVSPropertyOp25
 70
     1
102
RTVSPropertyOp26
 70
     1
102
RTVSPropertyOp27
 70
     1
102
RTVSPropertyOp28
 70
     1
102
RTVSPropertyOp29
 70
     1
102
RTVSPropertyOp30
 70
     1
102
RTVSPropertyOp31
 70
     1
102
RTVSPropertyOp32
 70
     1
  0
ENDSEC
  0
EOF
